Telecharger 40 jours et 40 nuits [VF] [Dvdrip]

Qualité BLURAY 720p | MULTiLANGUES

40 jours et 40 nuits

40 jours et 40 nuits

Origine du film : Français, Américain, Britannique
Réalisateur : Michael Lehmann
Acteurs : Josh Hartnett, Shannyn Sossamon, Paulo Costanzo
Genre : Comédie
Durée : 1h36min
Date de sortie : 10 juillet 2002
Année de production : 2001
Titre Original : 40 Days and 40 Nights
Distribué par : United International Pictures (UIP)
Note presse : 40 jours et 40 nuits 2,2/5
Note spectateurs : 40 jours et 40 nuits

; »>2,1/5 (4 755)
Bande annonce :

76580f4a2416e078c44735b932493703

18670616″>Cliquez-ici pour voir la bande annonce 76580f4a2416e078c44735b932493703″> 18670616

76580f4a2416e078c44735b932493703

40 jours et 40 nuits

Matt Sullivan sort d’une rupture douloureuse. Sa dernière grande histoire d’amour s’est soldée par un véritable échec.A vingt-huit ans, Matt jouit d’une solide réputation de tombeur. Concepteur de sites Internet, il fréquente les milieux branchés de San Francisco, côtoie les plus belles femmes et multiplie les conquêtes. Mais celui-ci se lance un défi : pendant quarante jours et quarante nuits, ce séducteur impénitent s’abstiendra de toute relation sexuelle, fuira toute tentation charnelle, refusera baisers, flirts et caresses. S’il y parvient, ce sera la première fois qu’il respectera un engagement jusqu’au bout.Matt a enfin l’impression de contrôler ses envies et son destin. Jusqu’au jour où il fait la rencontre d’Erica. Cette fille à la fois sexy, intelligente, épanouie et débordante d’humour, le rend complètement fou…
101231″ style= »display:inline; »>

40 jours et 40 nuits

Format : MKV
Découpé avec : Winrar

40 jours et 40 nuits

40.Jours.et.40.Nuits.2002.720p.MULTi.DTS.AC3.x264-GAÏA

(5862 Mo)

[Liens Interchangeables entre hébergeurs: 5x 1000 Mo + 1x 862 Mo]

Uptobox
Télécharger

Uplea
Télécharger

1fichier
Télécharger

Uploaded
Télécharger

Rapidgator
Télécharger

TurboBit
Télécharger

[ Liens Premium ]

Uptobox
Télécharger

Uplea
Télécharger

1fichier
Télécharger

Uploaded
Télécharger

TurboBit
Télécharger

NFO :

Afficher / Masquer le texte 9eb5b9527603f35b6dc6e45d247ea7ff » class= »text_spoiler » style= »display:none; »>40.Jours.et.40.Nuits.2002.720p.MULTi.DTS.AC3.x264-GAiA.zone-telechargement.com.mkv
Format : Matroska
Format version : Version 2
File size : 5.73 GiB
Duration : 1h 35mn
Overall bit rate : 8 584 Kbps
Movie name : 40 Jours et 40 Nuits 2002 720p MULTi DTS AC3 x264-GAÏA
Encoded date : UTC 2012-06-22 20:28:56
Writing application : mkvmerge v5.0.1 (‘Es ist Sommer’) built on Oct 9 2011 11:55:43
Writing library : libebml v1.2.2 + libmatroska v1.3.0

Video
ID : 1
Format : AVC
Format/Info : Advanced Video Codec
Format profile : [email protected]
Format settings, CABAC : Yes
Format settings, ReFrames : 9 frames
Muxing mode : Header stripping
Codec ID : V_MPEG4/ISO/AVC
Duration : 1h 35mn
Bit rate : 6 695 Kbps
Width : 1 280 pixels
Height : 720 pixels
Display aspect ratio : 16:9
Frame rate mode : Constant
Frame rate : 23.976 fps
Color space : YUV
Chroma subsampling : 4:2:0
Bit depth : 8 bits
Scan type : Progressive
Bits/(Pixel*Frame) : 0.303
Stream size : 4.35 GiB (76%)
Title : GAÏA x264 @ 6695Kbps
Writing library : x264 core 125 r2200 999b753
Encoding settings : cabac=1 / ref=9 / deblock=1:-3:-3 / analyse=0x3:0x133 / me=umh / subme=11 / psy=1 / psy_rd=0.80:0.00 / mixed_ref=1 / me_range=64 / chroma_me=1 / trellis=2 / 8x8dct=1 / cqm=0 / deadzone=6,6 / fast_pskip=0 / chroma_qp_offset=-2 / threads=12 / lookahead_threads=2 / sliced_threads=0 / nr=0 / decimate=0 / interlaced=0 / bluray_compat=0 / constrained_intra=0 / bframes=5 / b_pyramid=2 / b_adapt=2 / b_bias=0 / direct=3 / weightb=1 / open_gop=1 / weightp=2 / keyint=250 / keyint_min=23 / scenecut=40 / intra_refresh=0 / rc_lookahead=250 / rc=2pass / mbtree=1 / bitrate=6695 / ratetol=1.0 / qcomp=0.60 / qpmin=0 / qpmax=69 / qpstep=4 / cplxblur=20.0 / qblur=0.5 / vbv_maxrate=50000 / vbv_bufsize=50000 / nal_hrd=none / ip_ratio=1.40 / aq=2:1.00
Language : English
Default : Yes
Forced : No
Color range : Limited
Color primaries : BT.709
Transfer characteristics : BT.709
Matrix coefficients : BT.709

Audio #1
ID : 4
Format : DTS
Format/Info : Digital Theater Systems
Mode : 16
Format settings, Endianness : Big
Muxing mode : Header stripping
Codec ID : A_DTS
Duration : 1h 35mn
Bit rate mode : Constant
Bit rate : 1 509 Kbps
Channel(s) : 6 channels
Channel positions : Front: L C R, Side: L R, LFE
Sampling rate : 48.0 KHz
Bit depth : 16 bits
Compression mode : Lossy
Stream size : 1.01 GiB (18%)
Title : DTS 5.1 @ 1509Kbps
Language : English
Default : No
Forced : No

Audio #2
ID : 6
Format : AC-3
Format/Info : Audio Coding 3
Mode extension : CM (complete main)
Format settings, Endianness : Big
Muxing mode : Header stripping
Codec ID : A_AC3
Duration : 1h 35mn
Bit rate mode : Constant
Bit rate : 384 Kbps
Channel(s) : 6 channels
Channel positions : Front: L C R, Side: L R, LFE
Sampling rate : 48.0 KHz
Compression mode : Lossy
Stream size : 262 MiB (4%)
Title : AC3 5.1 @ 384Kbps
Language : French
Default : Yes
Forced : Yes

Text #1
ID : 2
Format : UTF-8
Codec ID : S_TEXT/UTF8
Codec ID/Info : UTF-8 Plain Text
Title : Complets [Srt]
Language : French
Default : No
Forced : No

Text #2
ID : 3
Format : UTF-8
Codec ID : S_TEXT/UTF8
Codec ID/Info : UTF-8 Plain Text
Title : Forçés [Srt]
Language : French
Default : Yes
Forced : Yes

Text #3
ID : 5
Format : UTF-8
Codec ID : S_TEXT/UTF8
Codec ID/Info : UTF-8 Plain Text
Title : Full [Srt]
Language : English
Default : No
Forced : No