Telecharger 7 secondes (V) [BLURAY 720p] French

BLURAY 720p | FRENCH

7 secondes (V)

7 secondes (V)

7 secondes (V)

Origine du film : Américain
Réalisateur : Simon Fellows
Acteurs : Wesley Snipes, Tamzin Outhwaite, Martin Wheeler
Genre : Thriller
Durée : 1h41min
Année de production : 2004
Titre Original : Seven seconds (V)
Note spectateurs : 7 secondes (V) 1,8/5 (274)
Bande annonce :

5b1138ccddda707274b47a377fa5a0cc

19440000″>Cliquez-ici pour voir la bande annonce 5b1138ccddda707274b47a377fa5a0cc »> 19440000

5b1138ccddda707274b47a377fa5a0cc

7 secondes (V)

Un expert du cambriolage dérobe sans le savoir une toile de Van Gogh et tente de sauver son partenaire pris en otage par des gangsters à la recherche de la fameuse toile. 44814″ style= »display:inline; »>

Qualité : BLURAY 720p
Format : MKV
Langue : Français
Découpé avec : Winrar
Nombre de fichiers : 5 Fichiers
Taille des fichiers : 1000 Mo 477 Mo

[5 Liens Interchangeables : 4 x 1000 Mo 1 x 477 Mo]

7.Seconds.2005.STV.FRENCH.720p.BluRay.x264-ForceBleue ( 4477 Mo)

1fichier
Télécharger

Uptobox
Télécharger

Uploaded
Télécharger

Rapidgator
Télécharger

TurboBit
Télécharger

[1 Lien PREMIUM : 1 x 4.37 GB]

1fichier
Télécharger

Uptobox
Télécharger

Uploaded
Télécharger

TurboBit
Télécharger

NFO :

Afficher / Masquer le texte 27e75abbd168482b64545b1f6ee4571e » class= »text_spoiler » style= »display:none; »>General
Complete name : fb-7seconds.mkv
Format : Matroska
Format version : Version 1
File size : 4.37 GiB
Duration : 1h 35mn
Overall bit rate : 6 524 Kbps
Encoded date : UTC 2008-08-08 21:31:03
Writing application : mkvmerge v2.2.0 ('Turn It On Again') built on Mar 4 2008 12:58:26
Writing library : libebml v0.7.7 libmatroska v0.8.1

Video
ID : 1
Format : AVC
Format/Info : Advanced Video Codec
Format profile : [email protected]
Format settings, CABAC : Yes
Format settings, ReFrames : 5 frames
Codec ID : V_MPEG4/ISO/AVC
Duration : 1h 35mn
Bit rate : 5 882 Kbps
Width : 1 280 pixels
Height : 688 pixels
Display aspect ratio : 1.85:1
Frame rate : 23.976 fps
Color space : YUV
Chroma subsampling : 4:2:0
Bit depth : 8 bits
Scan type : Progressive
Bits/(Pixel*Frame) : 0.279
Stream size : 3.86 GiB (88%)
Writing library : x264 core 60 r922M 4e7f5cb
Encoding settings : cabac=1 / ref=5 / deblock=1:-3:-2 / analyse=0x3:0x2 / me=umh / subme=7 / psy_rd=1.000000 / brdo=1 / mixed_ref=1 / me_range=16 / chroma_me=1 / trellis=0 / 8x8dct=1 / cqm=2 / deadzone=21,11 / chroma_qp_offset=0 / threads=6 / nr=0 / decimate=1 / mbaff=0 / bframes=3 / b_pyramid=1 / b_adapt=1 / b_bias=0 / direct=1 / wpredb=1 / bime=1 / keyint=250 / keyint_min=25 / scenecut=40(pre) / rc=2pass / bitrate=5882 / ratetol=1.0 / rceq='blurCplx^(1-qComp)' / qcomp=1.00 / qpmin=10 / qpmax=51 / qpstep=4 / cplxblur=20.0 / qblur=0.5 / ip_ratio=1.40 / pb_ratio=1.30 / aq=2:1.00
Language : English
Default : Yes
Forced : No

Audio
ID : 2
Format : AC-3
Format/Info : Audio Coding 3
Mode extension : CM (complete main)
Format settings, Endianness : Big
Codec ID : A_AC3
Duration : 1h 35mn
Bit rate mode : Constant
Bit rate : 640 Kbps
Channel(s) : 6 channels
Channel positions : Front: L C R, Side: L R, LFE
Sampling rate : 48.0 KHz
Bit depth : 16 bits
Compression mode : Lossy
Stream size : 439 MiB (10%)
Default : Yes
Forced : No

 » itemscope= » » itemprop= »aggregateRating » style= »display: none; »>