Telecharger 90 Minutes In Heaven[BLURAY 720p]

Qualité BLURAY 720p | TRUEFRENCH

Origine du film : Américain
Réalisateur : Michael Polish
Acteurs : Hayden Christensen, Kate Bosworth, Bobby Batson
Genre : Drame
Année de production : 2015
Note spectateurs :
2,3/5 (1867 IMDB)

Un homme tué dans un accident de voiture revient à la vie 90 minutes après son décès. Il prétend avoir vu le Paradis.
news-id-134634″ style= »display:inline; »>

Format : x264
Découpé avec : Winrar

90.Minutes.in.Heaven.2015.FRENCH.720p.BluRay.x264-Cortex91

(4610 Mo)

[Liens Interchangeables entre hébergeurs: 4x 1000 Mo + 1x 610 Mo]

Uptobox
Télécharger

Uplea
Télécharger

1fichier
Télécharger

Uploaded
Télécharger

Rapidgator
Télécharger

TurboBit
Télécharger

[Liens PREMIUM]

Uptobox
Télécharger

Uplea
Télécharger

1fichier
Télécharger

Uploaded
Télécharger

Rapidgator
Télécharger

TurboBit
Télécharger

NFO :

4269c94d1a3a5450020601f835034633″ class= »text_spoiler » style= »display:none; »>

General
Format : Matroska
Format version : Version 4 / Version 2
File size : 4.50 GiB
Duration : 2h 2mn
Overall bit rate : 5 284 Kbps
Encoded date : UTC 2016-05-18 23:12:13
Writing application : mkvmerge v9.1.0 ('Little Earthquakes') 64bit
Writing library : libebml v1.3.3 + libmatroska v1.4.4
DURATION : 02:01:31.648000000
NUMBER_OF_FRAMES : 227864
NUMBER_OF_BYTES : 349999104
_STATISTICS_WRITING_APP : mkvmerge v9.1.0 ('Little Earthquakes') 64bit
_STATISTICS_WRITING_DATE_UTC : 2016-05-18 23:12:13
_STATISTICS_TAGS : BPS DURATION NUMBER_OF_FRAMES NUMBER_OF_BYTES

Video
ID : 1
Format : AVC
Format/Info : Advanced Video Codec
Format profile : [email protected]
Format settings, CABAC : Yes
Format settings, ReFrames : 5 frames
Codec ID : V_MPEG4/ISO/AVC
Duration : 2h 2mn
Bit rate : 4 902 Kbps
Width : 1 280 pixels
Height : 536 pixels
Display aspect ratio : 2.40:1
Frame rate mode : Constant
Frame rate : 23.976 fps
Color space : YUV
Chroma subsampling : 4:2:0
Bit depth : 8 bits
Scan type : Progressive
Bits/(Pixel*Frame) : 0.298
Stream size : 4.09 GiB (91%)
Writing library : x264 core 148 r2597 e86f3a1
Encoding settings : cabac=1 / ref=5 / deblock=1:0:0 / analyse=0x3:0x133 / me=umh / subme=7 / psy=1 / psy_rd=1.00:0.00 / mixed_ref=1 / me_range=16 / chroma_me=1 / trellis=1 / 8x8dct=1 / cqm=0 / deadzone=21,11 / fast_pskip=0 / chroma_qp_offset=-2 / threads=17 / lookahead_threads=2 / sliced_threads=0 / nr=0 / decimate=1 / interlaced=0 / bluray_compat=0 / constrained_intra=0 / bframes=3 / b_pyramid=2 / b_adapt=1 / b_bias=0 / direct=1 / weightb=1 / open_gop=0 / weightp=2 / keyint=250 / keyint_min=23 / scenecut=40 / intra_refresh=0 / rc_lookahead=40 / rc=2pass / mbtree=1 / bitrate=4902 / ratetol=1.0 / qcomp=0.60 / qpmin=0 / qpmax=69 / qpstep=4 / cplxblur=20.0 / qblur=0.5 / ip_ratio=1.40 / aq=1:1.00
Language : English
Default : Yes
Forced : No
DURATION : 02:02:00.283000000
NUMBER_OF_FRAMES : 175511
NUMBER_OF_BYTES : 4483261438
_STATISTICS_WRITING_APP : mkvmerge v9.1.0 ('Little Earthquakes') 64bit
_STATISTICS_WRITING_DATE_UTC : 2016-05-18 23:12:13
_STATISTICS_TAGS : BPS DURATION NUMBER_OF_FRAMES NUMBER_OF_BYTES

Audio
ID : 2
Format : AC-3
Format/Info : Audio Coding 3
Mode extension : CM (complete main)
Format settings, Endianness : Big
Codec ID : A_AC3
Duration : 2h 2mn
Bit rate mode : Constant
Bit rate : 384 Kbps
Channel(s) : 6 channels
Channel positions : Front: L C R, Side: L R, LFE
Sampling rate : 48.0 KHz
Bit depth : 16 bits
Compression mode : Lossy
Delay relative to video : 24s 0ms
Stream size : 335 MiB (7%)
Default : Yes
Forced : No

Menu
00:00:00.000 : en:00:00:00.000
00:06:18.420 : en:00:06:18.420
00:10:40.932 : en:00:10:40.932
00:15:10.743 : en:00:15:10.743
00:20:13.546 : en:00:20:13.546
00:26:19.995 : en:00:26:19.995
00:31:36.853 : en:00:31:36.853
00:40:10.658 : en:00:40:10.658
00:45:36.400 : en:00:45:36.400
00:54:32.895 : en:00:54:32.895
01:04:07.093 : en:01:04:07.093
01:10:33.312 : en:01:10:33.312
01:15:44.165 : en:01:15:44.165
01:20:36.999 : en:01:20:36.999
01:27:33.373 : en:01:27:33.373
01:35:31.601 : en:01:35:31.601
01:39:22.331 : en:01:39:22.331
01:48:05.145 : en:01:48:05.145
01:52:19.691 : en:01:52:19.691
01:58:23.221 : en:01:58:23.221