Telecharger A Good Man [BLURAY 720p] French

(TRUEFRENCH = Vraie voix française)

BLURAY 720p | TRUEFRENCH

A Good Man

A Good Man

A Good Man

Origine du film : Américain
Réalisateur : Keoni Waxman
Acteurs : Steven Seagal, Victor Webster, Tzi Ma
Genre : Action
Durée : 1h40min
Année de production : 2014
Note spectateurs : A Good Man 3,1/5 (4)
Bande annonce :

4251d0201fc6ed5b2f9953a06e8c1ff5

19547802″>Cliquez-ici pour voir la bande annonce 4251d0201fc6ed5b2f9953a06e8c1ff5″> 19547802

4251d0201fc6ed5b2f9953a06e8c1ff5

A Good Man

Un ancien militaire essaie de mener une vie ordinaire en travaillant dans un complexe d'appartements. Mais l'un de ses locataires lui fait rapidement reprendre du service lorsqu'il se retrouve sous l'emprise d'un gangster russe. L'homme solitaire ressors alors les armes pour la bonne cause…
60253″ style= »display:inline; »>

A Good Man

Qualité : BLURAY 720p
Format : MKV
Langue : Français
Sous-titre : Français
Nombre de fichiers : 4 Fichiers
Taille des fichiers : 1000 Mo + 688 Mo

A Good Man

Ps: Les liens sont interchangeables, prenez une partie de chaque hébergeur pour télécharger plusieurs fichiers en même temps.

A.Good.Man.2014.STV.FRENCH.720p.BluRay.x264.AC3-CNF30 ( 3688 Mo)

Uptobox
Télécharger

Uplea
Télécharger

1fichier
Télécharger

Uploaded
Télécharger

Rapidgator
Télécharger

TurboBit
Télécharger

1 Lien Premium – 3.6 Go

Uptobox Premium
Télécharger

Uplea Premium
Télécharger

1fichier Premium
Télécharger

Uploaded Premium
Télécharger

TurboBit Premium
Télécharger

NFO :

Afficher / Masquer le texte ab630f981b6606d28afbc06aec6074f3″ class= »text_spoiler » style= »display:none; »>Format : Matroska
Format version : Version 4 / Version 2
File size : 3.60 GiB
Duration : 1h 43mn
Overall bit rate : 4 988 Kbps
Encoded date : UTC 2014-10-06 01:18:35
Writing application : mkvmerge v6.8.0 (‘Theme for Great Cities’) 64bit built on Mar 2 2014 21:34:26
Writing library : libebml v1.3.0 + libmatroska v1.4.1

Video
ID : 1
Format : AVC
Format/Info : Advanced Video Codec
Format profile : [email protected]
Format settings, CABAC : Yes
Format settings, ReFrames : 5 frames
Codec ID : V_MPEG4/ISO/AVC
Duration : 1h 43mn
Bit rate : 4 549 Kbps
Width : 1 280 pixels
Height : 720 pixels
Display aspect ratio : 16:9
Frame rate : 23.976 fps
Color space : YUV
Chroma subsampling : 4:2:0
Bit depth : 8 bits
Scan type : Progressive
Bits/(Pixel*Frame) : 0.206
Stream size : 3.21 GiB (89%)
Writing library : x264 core 142 r2479 dd79a61
Encoding settings : cabac=1 / ref=5 / deblock=1:0:0 / analyse=0x3:0x113 / me=umh / subme=8 / psy=1 / psy_rd=1.00:0.00 / mixed_ref=1 / me_range=16 / chroma_me=1 / trellis=1 / 8x8dct=1 / cqm=0 / deadzone=21,11 / fast_pskip=0 / chroma_qp_offset=-2 / threads=6 / lookahead_threads=1 / sliced_threads=0 / nr=0 / decimate=1 / interlaced=0 / bluray_compat=0 / constrained_intra=0 / bframes=3 / b_pyramid=2 / b_adapt=2 / b_bias=0 / direct=3 / weightb=1 / open_gop=0 / weightp=2 / keyint=250 / keyint_min=23 / scenecut=40 / intra_refresh=0 / rc_lookahead=50 / rc=2pass / mbtree=1 / bitrate=4549 / ratetol=1.0 / qcomp=0.60 / qpmin=0 / qpmax=69 / qpstep=4 / cplxblur=20.0 / qblur=0.5 / ip_ratio=1.40 / aq=1:1.00
Default : Yes
Forced : No
DURATION : 01:43:10.977000000
NUMBER_OF_FRAMES : 148435
NUMBER_OF_BYTES : 3518876155
_STATISTICS_WRITING_APP : mkvmerge v7.1.0 (‘Good Love’) 64bit built on Jul 27 2014 13:06:55
_STATISTICS_WRITING_DATE_UTC : 2014-09-11 06:54:43
_STATISTICS_TAGS : BPS DURATION NUMBER_OF_FRAMES NUMBER_OF_BYTES

Audio
ID : 2
Format : AC-3
Format/Info : Audio Coding 3
Mode extension : CM (complete main)
Format settings, Endianness : Big
Codec ID : A_AC3
Duration : 1h 43mn
Bit rate mode : Constant
Bit rate : 448 Kbps
Channel(s) : 6 channels
Channel positions : Front: L C R, Side: L R, LFE
Sampling rate : 48.0 KHz
Bit depth : 16 bits
Compression mode : Lossy
Delay relative to video : 4s 0ms
Stream size : 331 MiB (9%)
Title : French VFI
Language : French
Default : Yes
Forced : No

Text
ID : 3
Format : UTF-8
Codec ID : S_TEXT/UTF8
Codec ID/Info : UTF-8 Plain Text
Title : French forced
Language : French
Default : Yes
Forced : Yes