Telecharger A l'épreuve des balles [BLURAY 720p] French

Qualité BLURAY 720p | FRENCH | son DTS

A l'épreuve des balles

A l'épreuve des balles

Origine du film : Américain
Réalisateur : Ernest Dickerson
Acteurs : Damon Wayans, Adam Sandler, James Caan
Genre : Action, Comédie
Durée : 1h26min
Année de production : 1996
Titre Original : Bulletproof
Note spectateurs : A l'épreuve des balles 2,6/5 (81)
Bande annonce :

4c971777d5ea30f8ff96c82d7e7f2395

19448381″>Cliquez-ici pour voir la bande annonce 4c971777d5ea30f8ff96c82d7e7f2395″> 19448381

4c971777d5ea30f8ff96c82d7e7f2395

A l'épreuve des balles

Rock Keats et Archie Moses sont les meilleurs amis du monde et se livrent à de petits délits. Mais, lorsqu’ils se retrouvent mêler à une affaire de drogue de grande envergure, Rock Keats s’avère ne pas être celui qu’il prétend.
103303″ style= »display:inline; »>

A l'épreuve des balles

Format : MKV
Découpé avec : Winrar

A l'épreuve des balles

Bulletproof.1996.FRENCH.720p.BluRay.DTS.x264-FTX

(4982 Mo)

[Liens Interchangeables entre hébergeurs: 4x 1000 Mo + 1x 982 Mo]

Uptobox
Télécharger

Uplea
Télécharger

1fichier
Télécharger

Uploaded
Télécharger

Rapidgator
Télécharger

TurboBit
Télécharger

[ Liens Premium ]

Uptobox
Télécharger

Uplea
Télécharger

1fichier
Télécharger

Uploaded
Télécharger

TurboBit
Télécharger

NFO :

Afficher / Masquer le texte 3a63d8532647cbe0a1884a83ddd6e843″ class= »text_spoiler » style= »display:none; »>Bulletproof.1996.FRENCH.720p.BluRay.DTS.x264-FTX.zone-telechargement.com .mkv
Format : Matroska
Format version : Version 4 / Version 2
File size : 4.87 GiB
Duration : 1h 24mn
Overall bit rate : 8 254 Kbps
Movie name : Bulletproof.1996.FRENCH.720p.BluRay.DTS.x264-FTX
Encoded date : UTC 2013-06-19 00:19:51
Writing application : mkvmerge v6.2.0 (‘Promised Land’) built on Apr 28 2013 12:22:01
Writing library : libebml v1.3.0 + libmatroska v1.4.0

Video
ID : 1
Format : AVC
Format/Info : Advanced Video Codec
Format profile : [email protected]
Format settings, CABAC : Yes
Format settings, ReFrames : 4 frames
Format settings, GOP : M=7, N=12
Codec ID : V_MPEG4/ISO/AVC
Duration : 1h 24mn
Bit rate : 7 500 Kbps
Width : 1 280 pixels
Height : 720 pixels
Display aspect ratio : 16:9
Frame rate mode : Constant
Frame rate : 23.976 fps
Color space : YUV
Chroma subsampling : 4:2:0
Bit depth : 8 bits
Scan type : Progressive
Bits/(Pixel*Frame) : 0.339
Stream size : 4.32 GiB (89%)
Title : Bulletproof.1996.FRENCH.720p.BluRay.DTS.x264-FTX
Writing library : x264 core 116 r2044
Encoding settings : cabac=1 / ref=4 / deblock=1:-3:-3 / analyse=0x3:0x133 / me=hex / subme=9 / psy=1 / psy_rd=1.00:0.00 / mixed_ref=0 / me_range=16 / chroma_me=1 / trellis=1 / 8x8dct=1 / cqm=0 / deadzone=21,11 / fast_pskip=1 / chroma_qp_offset=-2 / threads=6 / sliced_threads=0 / nr=0 / decimate=1 / interlaced=0 / bluray_compat=0 / constrained_intra=0 / bframes=6 / b_pyramid=0 / b_adapt=1 / b_bias=0 / direct=3 / weightb=1 / open_gop=1 / weightp=2 / keyint=12 / keyint_min=7 / scenecut=40 / intra_refresh=0 / rc_lookahead=23 / rc=abr / mbtree=1 / bitrate=7500 / ratetol=1.0 / qcomp=0.60 / qpmin=10 / qpmax=51 / qpstep=4 / vbv_maxrate=24000 / vbv_bufsize=24000 / nal_hrd=none / ip_ratio=1.40 / aq=1:1.00
Default : Yes
Forced : No

Audio
ID : 2
Format : DTS
Format/Info : Digital Theater Systems
Mode : 16
Format settings, Endianness : Big
Codec ID : A_DTS
Duration : 1h 24mn
Bit rate mode : Constant
Bit rate : 768 Kbps
Channel count : 6 channels
Channel positions : Front: L C R, Side: L R, LFE
Sampling rate : 48.0 KHz
Bit depth : 24 bits
Compression mode : Lossy
Stream size : 464 MiB (9%)
Title : FRENCH DTS 5.1 @ 755 Kbps
Language : French
Default : Yes
Forced : No

Text #1
ID : 3
Format : UTF-8
Codec ID : S_TEXT/UTF8
Codec ID/Info : UTF-8 Plain Text
Title : French Forced
Language : French
Default : Yes
Forced : Yes

Text #2
ID : 4
Format : UTF-8
Codec ID : S_TEXT/UTF8
Codec ID/Info : UTF-8 Plain Text
Title : French
Language : French
Default : No
Forced : No

Jeux Gratuit
15354131_1854970838071206_1069261547_o.png