Télécharger Adaline VOSTFR

Qualité BLURAY 720p | VOSTFR

Adaline

Adaline

Origine du film : Américain
Réalisateur : Lee Toland Krieger
Acteurs : Blake Lively, Michiel Huisman, Harrison Ford
Genre : Romance, Fantastique, Drame
Durée : 1h53min
Année de production : 2015
Titre Original : The Age of Adaline
Distribué par : TF1 Vidéo
Note spectateurs : Adaline 4,1/5 (593)
Bande annonce :

a1eb2ecf8f0b3e0bfc4f74deeb65e61d

19549707″>Cliquez-ici pour voir la bande annonce a1eb2ecf8f0b3e0bfc4f74deeb65e61d »> 19549707

a1eb2ecf8f0b3e0bfc4f74deeb65e61d

Adaline

Ce film sort en e-Cinéma le vendredi 22 mai 2015.Après un accident qui aurait dû lui être fatal, la belle Adaline cesse de vieillir. Aujourd’hui, bien qu’ayant vécu près de huit décennies, elle est toujours âgée de 29 ans. Après avoir mené une existence solitaire afin de ne jamais révéler son secret, une rencontre fortuite avec le philanthrope et charismatique Ellis Jones, va raviver sa passion de la vie et de l’amour.Pour visionner le film…
95125″ style= »display:inline; »>

Adaline

Format : XviD
Découpé avec : Winrar

Adaline

The.Age.of.Adaline.2015.VOSTFR.720p.BluRay.x264.AC3-BUITONIO

(4465 Mo)

[Liens Interchangeables entre hébergeurs: 4x 1000 Mo + 1x 465 Mo]

Uptobox
Télécharger

Uplea
Télécharger

1fichier
Télécharger

Uploaded
Télécharger

Rapidgator
Télécharger

TurboBit
Télécharger

[Liens PREMIUM]

Uptobox
Télécharger

Uplea
Télécharger

1fichier
Télécharger

Uploaded
Télécharger

Rapidgator
Télécharger

TurboBit
Télécharger

NFO :

Afficher / Masquer le texte 5397ddc2ab6f1c08b7c672660030ac0f » class= »text_spoiler » style= »display:none; »>General
Format : Matroska
Format version : Version 4 / Version 2
File size : 4.36 GiB
Duration : 1h 52mn
Overall bit rate : 5 538 Kbps
Encoded date : UTC 2015-08-11 16:14:54
Writing application : mkvmerge v8.2.0 (‘World of Adventure’) 64bit
Writing library : libebml v1.3.1 + libmatroska v1.4.2

Video
ID : 1
Format : AVC
Format/Info : Advanced Video Codec
Format profile : [email protected]
Format settings, CABAC : Yes
Format settings, ReFrames : 5 frames
Codec ID : V_MPEG4/ISO/AVC
Duration : 1h 52mn
Bit rate : 4 906 Kbps
Width : 1 280 pixels
Height : 720 pixels
Display aspect ratio : 16:9
Frame rate mode : Constant
Frame rate : 23.976 fps
Color space : YUV
Chroma subsampling : 4:2:0
Bit depth : 8 bits
Scan type : Progressive
Bits/(Pixel*Frame) : 0.222
Stream size : 3.77 GiB (86%)
Writing library : x264 core 146 r2538 121396c
Encoding settings : cabac=1 / ref=5 / deblock=1:0:0 / analyse=0x3:0x133 / me=umh / subme=7 / psy=1 / psy_rd=1.00:0.00 / mixed_ref=1 / me_range=16 / chroma_me=1 / trellis=1 / 8x8dct=1 / cqm=0 / deadzone=21,11 / fast_pskip=0 / chroma_qp_offset=-2 / threads=60 / lookahead_threads=5 / sliced_threads=0 / nr=0 / decimate=1 / interlaced=0 / bluray_compat=0 / constrained_intra=0 / bframes=3 / b_pyramid=2 / b_adapt=1 / b_bias=0 / direct=1 / weightb=1 / open_gop=0 / weightp=2 / keyint=250 / keyint_min=23 / scenecut=40 / intra_refresh=0 / rc_lookahead=40 / rc=2pass / mbtree=1 / bitrate=4906 / ratetol=1.0 / qcomp=0.60 / qpmin=0 / qpmax=69 / qpstep=4 / cplxblur=20.0 / qblur=0.5 / ip_ratio=1.40 / aq=1:1.00
Language : English
Default : Yes
Forced : No

Audio
ID : 2
Format : AC-3
Format/Info : Audio Coding 3
Mode extension : CM (complete main)
Format settings, Endianness : Big
Codec ID : A_AC3
Duration : 1h 52mn
Bit rate mode : Constant
Bit rate : 640 Kbps
Channel(s) : 6 channels
Channel positions : Front: L C R, Side: L R, LFE
Sampling rate : 48.0 KHz
Bit depth : 16 bits
Compression mode : Lossy
Stream size : 516 MiB (12%)
Language : English
Default : Yes
Forced : No

Text
ID : 3
Format : UTF-8
Codec ID : S_TEXT/UTF8
Codec ID/Info : UTF-8 Plain Text
Title : Sous-titres FR
Language : French
Default : Yes
Forced : No

Menu
00:00:00.000 : :Chapitre 1
00:04:47.162 : :Chapitre 2
00:16:53.513 : :Chapitre 3
00:28:11.064 : :Chapitre 4
00:37:29.748 : :Chapitre 5
00:43:38.241 : :Chapitre 6
00:50:41.789 : :Chapitre 7
00:59:52.339 : :Chapitre 8
01:08:49.751 : :Chapitre 9
01:21:14.244 : :Chapitre 10
01:31:37.993 : :Chapitre 11
01:43:23.698 : :Chapitre 12

416
-
100%
Votes : 1
Jeux Gratuit
15354131_1854970838071206_1069261547_o.png