Telecharger Adam et Eve [DVDRiP] French

(TRUEFRENCH = Vraie voix française)

Qualité DVDRiP | TRUEFRENCH

Adam et Eve

Adam et Eve

Origine du film : Suisse
Réalisateur : Jean LURET
Acteurs : Pauline DAUMALE, Jean-Francois DEREC, Sophie DUMAS, Michel GALABRU, Jean-Hugues LIME, Marcel PHILIPPOT, POPECK, Jean-Marie PROSLIER, Catherine ROUZEAU, Alice SAPRITCH, Jackie SARDOU, Richard TAXY, Corinne TELL
Genre : Comédie dramatique
Durée : 1h5min
Année de production : 1983

Adam et Eve

Ancienne diva de l’écran passablement défraîchie, La Maldiva tend un piège machiavélique au producteur de série Z Léon Blachurpe qui fut autrefois son ami. Son but : le pousser à financer une adaptation cinématographique de « Adam et Eve » dont elle sera la vedette malgré son âge avancé. Si son plan machiavélique fonctionne à merveille, La Maldiva tombe à son tour dans un piège. Neveu du producteur, le réalisateur du film oublie volontairement de charger la pellicule dans la caméra, puis retourne les scènes de La Maldiva avec une autre comédienne, plus adaptée au rôle….
78666″ style= »display:inline; »>

Adam et Eve

Format : XviD

Adam et Eve

Adam et Eve 1984 (galabru-sapritch) xvid

(1670 Mo)

Uptobox
Télécharger

Uploaded
Télécharger

TurboBit
Télécharger

Rapidgator
Télécharger

Uplea
Télécharger

1fichier
Télécharger

NFO :

Afficher / Masquer le texte 8d9ea7163f9bc9ffcc4f306b9b3bc0d3″ class= »text_spoiler » style= »display:none; »>General
Complete name : Adam et Eve 1984 (galabru-sapritch) xvid-mp3.avi
Format : AVI
Format/Info : Audio Video Interleave
Format profile : OpenDML
File size : 1.68 GiB
Duration : 1h 4mn
Overall bit rate : 3 752 Kbps
Writing application : MEncoder SVN-r30881(20100311-gcc4.3.3)
Writing library : MPlayer

Video
ID : 0
Format : MPEG-4 Visual
Format profile : Advanced [email protected]
Format settings, BVOP : Yes
Format settings, QPel : No
Format settings, GMC : No warppoints
Format settings, Matrix : Default (H.263)
Codec ID : XVID
Codec ID/Hint : XviD
Duration : 1h 4mn
Bit rate : 3 612 Kbps
Width : 720 pixels
Height : 576 pixels
Display aspect ratio : 16:9
Frame rate : 25.000 fps
Standard : PAL
Color space : YUV
Chroma subsampling : 4:2:0
Bit depth : 8 bits
Scan type : Progressive
Compression mode : Lossy
Bits/(Pixel*Frame) : 0.348
Stream size : 1.62 GiB (96%)
Writing library : XviD 1.2.1 (UTC 2008-12-04)

Audio
ID : 1
Format : MPEG Audio
Format version : Version 1
Format profile : Layer 3
Mode : Joint stereo
Mode extension : MS Stereo
Codec ID : 55
Codec ID/Hint : MP3
Duration : 1h 4mn
Bit rate mode : Constant
Bit rate : 128 Kbps
Channel(s) : 2 channels
Sampling rate : 44.1 KHz
Compression mode : Lossy
Delay relative to video : 40ms
Stream size : 58.7 MiB (3%)
Alignment : Aligned on interleaves
Interleave, duration : 26 ms (0.65 video frame)
Interleave, preload duration : 522 ms
Writing library : LAME3.98