Telecharger Agents de l'ombre [BLURAY 720p] French

(TRUEFRENCH = Vraie voix française)

BLURAY 720p | MULTiLANGUES (Avec TRUEFRENCH) | DTS

Agents de l'ombre

Agents de l'ombre

Agents de l'ombre

Origine du film : Ukrainien
Réalisateur : Sergej Sotnichenko
Acteurs : Alexander Lykov, Igor Sklyar, Vitaly Linetsky
Genre : Guerre, Policier
Durée : 1h 50min
Année de production : 2012
Titre Original : Tertium non Datur

Agents de l'ombre

En 1944, un agent russe est infiltré au commandement de l’armée Nazi au nord de l’Ukraine. Sa mission : découvrir les plans ennemis pour que l’armée russe puisse anéantir les allemands et mettre fin à la guerre.

Nom de la release : Agents.de.l’ombre.2012.MULTi.TRUEFRENCH.DTS.720p.BluRay.x264-STEAL 26669″ style= »display:inline; »>

Qualité : BLURAY 720p
Format : MKV
Sous-titre : Français
Nombre de fichiers : 6 Fichiers
Taille des fichiers : 1000 Mo 607 Mo
Taille totale : 5607 Mo

Ps: Les liens sont interchangeables, prenez une partie de chaque hébergeur pour télécharger plusieurs fichiers en même temps. smile

1fichier
Télécharger

Uptobox
Télécharger

Free
Télécharger

Uploaded
Télécharger

Rapidgator
Télécharger

TurboBit
Télécharger

[Un Lien Premium]

1fichier
Télécharger

Uptobox
Télécharger

TurboBit
Télécharger

NFO :

Afficher / Masquer le texte 9ea9635177727596f7a32367152c6fea » class= »text_spoiler » style= »display:none; »>General
Unique ID : 253063752453356190316320792445555016105 (0xBE624E4D6C76EEFEA9D88E41DA1F81A9)
Complete name : E:TelechargementsTerminesAgents de l'ombre 2012 720p DTS Bluray x264-STEAL.mkv
Format : Matroska
File size : 5.48 GiB
Duration : 1h 50mn
Overall bit rate : 7 071 Kbps
Movie name : Agents de l'ombre 2012 High [email protected] Resolution 1280p/ 720p Frame rate 25 fps Release Blondin000
Encoded date : UTC 2013-05-24 14:36:56
Writing application : mkvmerge v6.0.0 ('Coming Up For Air') built on Jan 20 2013 09:52:00
Writing library : libebml v1.3.0 libmatroska v1.4.0

Video
ID : 1
Format : AVC
Format/Info : Advanced Video Codec
Format profile : [email protected]
Format settings, CABAC : Yes
Format settings, ReFrames : 9 frames
Format settings, GOP : M=3, N=39
Codec ID : V_MPEG4/ISO/AVC
Duration : 1h 50mn
Bit rate : 4 000 Kbps
Width : 1 280 pixels
Height : 720 pixels
Display aspect ratio : 16:9
Frame rate : 25.000 fps
Color space : YUV
Chroma subsampling : 4:2:0
Bit depth : 8 bits
Scan type : Progressive
Bits/(Pixel*Frame) : 0.174
Stream size : 3.03 GiB (55%)
Title : Agents de l'ombre 2012 High [email protected] Resolution 1280p/ 720p Frame rate 25 fps Release Blondin000
Writing library : x264 core 130 r2273 b3065e6
Encoding settings : cabac=1 / ref=9 / deblock=1:-3:-3 / analyse=0x3:0x113 / me=umh / subme=11 / psy=1 / psy_rd=0.90:0.20 / mixed_ref=1 / me_range=128 / chroma_me=1 / trellis=2 / 8x8dct=1 / cqm=0 / deadzone=21,11 / fast_pskip=0 / chroma_qp_offset=-2 / threads=24 / lookahead_threads=2 / sliced_threads=0 / nr=0 / decimate=1 / interlaced=0 / bluray_compat=0 / constrained_intra=0 / bframes=5 / b_pyramid=2 / b_adapt=2 / b_bias=0 / direct=1 / weightb=1 / open_gop=1 / weightp=2 / keyint=250 / keyint_min=25 / scenecut=40 / intra_refresh=0 / rc_lookahead=250 / rc=2pass / mbtree=1 / bitrate=4000 / ratetol=1.0 / qcomp=0.60 / qpmin=0 / qpmax=69 / qpstep=4 / cplxblur=20.0 / qblur=0.5 / vbv_maxrate=50000 / vbv_bufsize=50000 / nal_hrd=none / ip_ratio=1.40 / aq=2:1.00
Language : English
Color primaries : BT.709-5, BT.1361, IEC 61966-2-4, SMPTE RP177
Transfer characteristics : BT.709-5, BT.1361
Matrix coefficients : BT.709-5, BT.1361, IEC 61966-2-4 709, SMPTE RP177

Audio #1
ID : 2
Format : DTS
Format/Info : Digital Theater Systems
Codec ID : A_DTS
Duration : 1h 50mn
Bit rate mode : Constant
Bit rate : 1 510 Kbps
Channel(s) : 6 channels
Channel positions : Front: L C R, Side: L R, LFE
Sampling rate : 48.0 KHz
Bit depth : 24 bits
Compression mode : Lossy
Stream size : 1.17 GiB (21%)
Title : VFF DTS 5.1_1510 kbps/ 16-bit 48khz
Language : French

Audio #2
ID : 3
Format : DTS
Format/Info : Digital Theater Systems
Codec ID : A_DTS
Duration : 1h 50mn
Bit rate mode : Constant
Bit rate : 1 510 Kbps
Channel(s) : 6 channels
Channel positions : Front: L C R, Side: L R, LFE
Sampling rate : 48.0 KHz
Bit depth : 24 bits
Compression mode : Lossy
Stream size : 1.17 GiB (21%)
Title : VO DTS 5.1_1510 kbps/ 16-bit 48khz
Language : Russian

Text #1
ID : 4
Format : PGS
Muxing mode : zlib
Codec ID : S_HDMV/PGS
Codec ID/Info : The same subtitle format used on BDs/HD-DVDs
Title : FR Complets Original Bluray
Language : French

Text #2
ID : 5
Format : UTF-8
Codec ID : S_TEXT/UTF8
Codec ID/Info : UTF-8 Plain Text
Title : FR Complets srt
Language : French