Telecharger Alexandre[BLURAY 720p]

(TRUEFRENCH = Vraie voix française)

Qualité BLURAY 720p | TRUEFRENCH

Origine du film : Allemand, Français, Néerlandais, Britannique
Réalisateur : Oliver Stone
Acteurs : Colin Farrell, Angelina Jolie Pitt, Val Kilmer
Genre : Biopic, Historique
Durée : 2h 50min
Date de sortie : 5 janvier 2005
Année de production : 2004
Titre Original : Alexander
Distribué par : Pathé Distribution
Note presse : 3,0/5
Note spectateurs :
2,5/5 (10692)

La vie d’Alexandre le Grand, narrée par Ptolémée : de son enfance à sa mort, des cours d’Aristote aux conquêtes qui firent sa légende, de l’intimité aux champs de bataille. Fils du roi Philippe II, il soumit la Grèce révoltée, fonda Alexandrie, défit les Perses, s’empara de Babylone et atteint l’Indus pour établir à 32 ans l’un des plus grands empires ayant jamais existé.
news-id-137211″ style= »display:inline; »>

Format : x264
Découpé avec : Winrar

Alexandre.2004.TRUEFRENCH.BluRay.720p.H264.2.0.-.5.1.AC3-FlaW313

(4807 Mo)

[Liens Interchangeables entre hébergeurs: 4x 1000 Mo + 1x 807 Mo]

Uptobox
Télécharger

Uplea
Télécharger

1fichier
Télécharger

Uploaded
Télécharger

Rapidgator
Télécharger

TurboBit
Télécharger

[Liens PREMIUM]

Uptobox
Télécharger

Uplea
Télécharger

1fichier
Télécharger

Uploaded
Télécharger

Rapidgator
Télécharger

TurboBit
Télécharger

NFO :

1d314ff010352aa91319dac2b7b9c02a » class= »text_spoiler » style= »display:none; »>

General
Format : Matroska
Format version : Version 2
File size : 4.70 GiB
Duration : 2h 55mn
Overall bit rate : 3 832 Kbps
Encoded date : UTC 2016-05-30T10:17:15Z
Writing application : HandBrake 0.10.5 2016021100
Writing library : Lavf55.12.0

Video
ID : 1
Format : AVC
Format/Info : Advanced Video Codec
Format profile : [email protected]
Format settings, CABAC : Yes
Format settings, ReFrames : 3 frames
Codec ID : V_MPEG4/ISO/AVC
Bit rate : 2 668 Kbps
Width : 1 280 pixels
Height : 552 pixels
Display aspect ratio : 2.35:1
Frame rate mode : Variable
Color space : YUV
Chroma subsampling : 4:2:0
Bit depth : 8 bits
Scan type : Progressive
Writing library : x264 core 142 r2479 dd79a61
Encoding settings : cabac=1 / ref=3 / deblock=1:0:0 / analyse=0x3:0x133 / me=umh / subme=8 / psy=1 / psy_rd=1.00:0.00 / mixed_ref=1 / me_range=32 / chroma_me=1 / trellis=2 / 8x8dct=1 / cqm=0 / deadzone=21,11 / fast_pskip=1 / chroma_qp_offset=-2 / threads=12 / lookahead_threads=2 / sliced_threads=0 / nr=0 / decimate=1 / interlaced=0 / bluray_compat=0 / constrained_intra=0 / bframes=3 / b_pyramid=1 / b_adapt=2 / b_bias=0 / direct=3 / weightb=1 / open_gop=0 / weightp=2 / keyint=240 / keyint_min=24 / scenecut=40 / intra_refresh=0 / rc_lookahead=40 / rc=crf / mbtree=1 / crf=19.0 / qcomp=0.60 / qpmin=0 / qpmax=69 / qpstep=4 / vbv_maxrate=50000 / vbv_bufsize=62500 / crf_max=0.0 / nal_hrd=none / filler=0 / ip_ratio=1.40 / aq=1:1.00
Default : Yes
Forced : No
Color primaries : BT.709
Transfer characteristics : BT.709
Matrix coefficients : BT.709

Audio #1
ID : 2
Format : AC-3
Format/Info : Audio Coding 3
Format profile : Dolby Digital
Mode extension : CM (complete main)
Format settings, Endianness : Big
Codec ID : A_AC3
Duration : 2h 55mn
Bit rate mode : Constant
Bit rate : 448 Kbps
Channel(s) : 2 channels
Channel positions : Front: L R
Sampling rate : 48.0 KHz
Bit depth : 16 bits
Compression mode : Lossy
Delay relative to video : 1mn 5s
Stream size : 562 MiB (12%)
Title : FR - 2.0 Dolby Pro Logic II - AC3
Language : French
Default : Yes
Forced : No

Audio #2
ID : 3
Format : AC-3
Format/Info : Audio Coding 3
Mode extension : CM (complete main)
Format settings, Endianness : Big
Codec ID : A_AC3
Duration : 2h 55mn
Bit rate mode : Constant
Bit rate : 640 Kbps
Channel(s) : 6 channels
Channel positions : Front: L C R, Side: L R, LFE
Sampling rate : 48.0 KHz
Bit depth : 16 bits
Compression mode : Lossy
Stream size : 803 MiB (17%)
Title : FR - 5.1 Channels - AC3
Language : French
Default : No
Forced : No

Jeux Gratuit
15354131_1854970838071206_1069261547_o.png