Telecharger American Graffiti, la suite [DVDRiP] French

Qualité BDRiP mkv | MULTiLANGUES

American Graffiti, la suite

American Graffiti, la suite

Origine du film : Américain
Réalisateur : Bill L. Norton
Acteurs : Candy Clark, Bo Hopkins, Ron Howard
Genre : Comédie
Durée : 1h51min
Année de production : 1979
Titre Original : More American Graffiti
Note spectateurs : American Graffiti, la suite

; »>2,9/5 (39)

American Graffiti, la suite

1962 en Californie. Les vacances se terminent. Belles américaines, musique à fond, drague à tout va… Curt, Steve, Lauri, Terry et tous les autres passent leurs nuits sur les routes et dans les drive-in, les selfs et les bals… Chaque minute qui passe est vécue intensément comme la dernière. L’essentiel, c’est de prendre le rythme et de le garder…
101649″ style= »display:inline; »>

American Graffiti, la suite

Format : MKV

American Graffiti, la suite

More American Graffiti 1979 MULTi.BDRiP.x264.AC3-HuSh

(1370 Mo)

Uptobox
Télécharger

Uploaded
Télécharger

TurboBit
Télécharger

Rapidgator
Télécharger

Uplea
Télécharger

1fichier
Télécharger

NFO :

Afficher / Masquer le texte cfbc974e4245e57ef99fc1e6869ba8cf » class= »text_spoiler » style= »display:none; »>■General

Unique ID : 313764696903612169808669958110503486335 (0xEC0CE1ED3664FAFCB1EECA339E33C37F)

Complete name : G:TorrentMore.American.Graffiti.1979.MULTi.BDRiP.x264.AC3-HuShMore.American.Graffiti.1979.MULTi.BDRiP.x264.AC3-HuSh.mkv

Format : Matroska

Format version : Version 2

File size : 1.41 GiB

Duration : 1h 50mn

Overall bit rate : 1 817 Kbps

Writing application : HandBrake 0.10.0 2014112200

Writing library : Lavf55.12.0

Video

ID : 1

Format : AVC

Format/Info : Advanced Video Codec

Format profile : [email protected]

Format settings, CABAC : Yes

Format settings, ReFrames : 4 frames

Codec ID : V_MPEG4/ISO/AVC

Bit rate : 1 203 Kbps

Width : 720 pixels

Height : 384 pixels

Display aspect ratio : 1.85:1

Frame rate mode : Variable

Color space : YUV

Chroma subsampling : 4:2:0

Bit depth : 8 bits

Scan type : Progressive

Writing library : x264 core 142 r2479 dd79a61

Encoding settings : cabac=1 / ref=1 / deblock=1:-1:-1 / analyse=0x1:0x111 / me=hex / subme=2 / psy=1 / psy_rd=1.00:0.15 / mixed_ref=0 / me_range=16 / chroma_me=1 / trellis=0 / 8x8dct=0 / cqm=0 / deadzone=21,11 / fast_pskip=1 / chroma_qp_offset=0 / threads=6 / lookahead_threads=2 / sliced_threads=0 / nr=0 / decimate=1 / interlaced=0 / bluray_compat=0 / constrained_intra=0 / bframes=3 / b_pyramid=2 / b_adapt=1 / b_bias=0 / direct=1 / weightb=1 / open_gop=0 / weightp=1 / keyint=240 / keyint_min=24 / scenecut=40 / intra_refresh=0 / rc_lookahead=10 / rc=2pass / mbtree=1 / bitrate=1203 / ratetol=1.0 / qcomp=0.60 / qpmin=0 / qpmax=69 / qpstep=4 / cplxblur=20.0 / qblur=0.5 / vbv_maxrate=14000 / vbv_bufsize=14000 / nal_hrd=none / filler=0 / ip_ratio=1.40 / aq=1:1.00

Default : Yes

Forced : No

Color range : Limited

Color primaries : BT.709

Transfer characteristics : BT.709

Matrix coefficients : BT.709

Audio #1

ID : 2

Format : AC-3

Format/Info : Audio Coding 3

Mode extension : CM (complete main)

Format settings, Endianness : Big

Codec ID : A_AC3

Duration : 1h 50mn

Bit rate mode : Constant

Bit rate : 448 Kbps

Channel(s) : 2 channels

Channel positions : Front: L R

Sampling rate : 48.0 KHz

Compression mode : Lossy

Delay relative to video : 27ms

Stream size : 355 MiB (25%)

Title : Stereo

Language : French

Default : Yes

Forced : No

Audio #2

ID : 3

Format : AC-3

Format/Info : Audio Coding 3

Format profile : Dolby Digital

Mode extension : CM (complete main)

Format settings, Endianness : Big

Codec ID : A_AC3

Duration : 1h 50mn

Bit rate mode : Constant

Bit rate : 128 Kbps

Channel(s) : 2 channels

Channel positions : Front: L R

Sampling rate : 48.0 KHz

Compression mode : Lossy

Delay relative to video : 27ms

Stream size : 102 MiB (7%)

Title : Stereo

Language : English

Default : No

Forced : No

Text

ID : 4

Format : PGS

Codec ID : S_HDMV/PGS

Codec ID/Info : Picture based subtitle format used on BDs/HD-DVDs

Language : French

Default : No

Forced : No

Jeux Gratuit
15354131_1854970838071206_1069261547_o.png