Télécharger American Ultra VOSTFR

Qualité WEBRiP | VOSTFR

American Ultra

American Ultra

Origine du film : Américain, Suisse
Réalisateur : Nima Nourizadeh
Acteurs : Jesse Eisenberg, Kristen Stewart, Topher Grace
Genre : Action, Comédie
Durée : 1h36min
Date de sortie : 19 août 2015
Année de production : 2015
Distribué par : Metropolitan FilmExport
Note presse : American Ultra 2,9/5
Note spectateurs : American Ultra 3,2/5 (1 465)
Bande annonce :

397a37006c602c510a3d230fcbdc839f

19554009″>Cliquez-ici pour voir la bande annonce 397a37006c602c510a3d230fcbdc839f »> 19554009

397a37006c602c510a3d230fcbdc839f

American Ultra

Une comédie d’action à propos de Mike Howell dont la vie paisible et sans ambition avec sa petite amie Phoebe se retrouve soudainement chamboulée. À sa grande surprise, Il est en fait un agent dormant surentrainé dont la mémoire a été effacée. En un clin d’œil, son passé refait surface et Mike se retrouve au milieu d’une opération gouvernementale visant à l’éliminer. Il va alors devoir faire appel à ses capacités insoupçonnées d’agent secret pour survivre.
104062″ style= »display:inline; »>

American Ultra

Format : XviD
Découpé avec : Winrar

American Ultra

American.Ultra.2015.FANSUB.VOSTFR.720p.WEBRiP.MD.XViD.AC3-NIKOo

(2869 Mo)

Télécharger un extrait du Film
Vidéo : 9/10 | Audio : 6/10

Super contributrice : MarjoOOo (Trad)

[Liens Interchangeables entre hébergeurs: 2x 1000 Mo + 1x 869 Mo]

Uptobox
Partie 1
Partie 2
Partie 3

Uplea
Partie 1
Partie 2
Partie 3

1fichier
Partie 1
Partie 2
Partie 3

Uploaded
Partie 1
Partie 2
Partie 3

Rapidgator
Partie 1
Partie 2
Partie 3

TurboBit
Partie 1
Partie 2
Partie 3

[1 Lien PREMIUM]

Uptobox
Télécharger

Uplea
Télécharger

1fichier
Télécharger

Uploaded
Télécharger

Rapidgator
Télécharger

TurboBit
Télécharger

NFO :

Afficher / Masquer le texte 44e503096b69938d2db65aae69a10153″ class= »text_spoiler » style= »display:none; »>General
Format : AVI
Format/Info : Audio Video Interleave
Format profile : OpenDML
File size : 2.80 GiB
Duration : 1h 35mn
Overall bit rate : 4 198 Kbps
Writing application : VirtualDubMod 1.5.10.2 (build 2540/release)
Writing library : VirtualDubMod build 2540/release

Video
ID : 0
Format : MPEG-4 Visual
Format profile : Advanced [email protected]
Format settings, BVOP : 2
Format settings, QPel : No
Format settings, GMC : No warppoints
Format settings, Matrix : Default (H.263)
Muxing mode : Packed bitstream
Codec ID : XVID
Codec ID/Hint : XviD
Duration : 1h 35mn
Bit rate : 3 995 Kbps
Width : 1 280 pixels
Height : 692 pixels
Display aspect ratio : 1.85:1
Frame rate : 24.000 fps
Color space : YUV
Chroma subsampling : 4:2:0
Bit depth : 8 bits
Scan type : Progressive
Compression mode : Lossy
Bits/(Pixel*Frame) : 0.188
Stream size : 2.67 GiB (95%)
Writing library : XviD 73

Audio
ID : 1
Format : AC-3
Format/Info : Audio Coding 3
Mode extension : CM (complete main)
Format settings, Endianness : Big
Codec ID : 2000
Duration : 1h 35mn
Bit rate mode : Constant
Bit rate : 192 Kbps
Channel(s) : 2 channels
Channel positions : Front: L R
Sampling rate : 48.0 KHz
Bit depth : 16 bits
Compression mode : Lossy
Stream size : 131 MiB (5%)
Alignment : Split accross interleaves
Interleave, duration : 42 ms (1.00 video frame)
Interleave, preload duration : 500 ms

Jeux Gratuit
15354131_1854970838071206_1069261547_o.png