Telecharger Animal [BLURAY 720p] French

(TRUEFRENCH = Vraie voix française)

Qualité BLURAY 720p | TRUEFRENCH

Animal

Animal

Origine du film : Américain
Réalisateur : Brett Simmons
Acteurs : Joey Lauren Adams, Elizabeth Gillies, Paul Iacono
Genre : Epouvante-horreur, Thriller
Durée : 1h26min
Année de production : 2014
Note spectateurs : Animal 2,7/5 (11)
Bande annonce :

cb5d6a6ca26b49c6fd0a78ad997d32e8

19559394″>Cliquez-ici pour voir la bande annonce cb5d6a6ca26b49c6fd0a78ad997d32e8″> 19559394

cb5d6a6ca26b49c6fd0a78ad997d32e8

Animal

Un groupe de jeunes vacaniers est pouchassé par un prédateur sanguinaire.
100778″ style= »display:inline; »>

Animal

Format : MKV
Découpé avec : Winrar

Animal

Animal.2014.TRUEFRENCH.720p.BluRay.x264-Slay3R

(3849 Mo)

[Liens Interchangeables entre hébergeurs: 3x 1000 Mo + 1x 849 Mo]

Uptobox
Télécharger

Uplea
Télécharger

1fichier
Télécharger

Uploaded
Télécharger

Rapidgator
Télécharger

TurboBit
Télécharger

[Liens PREMIUM]

Uptobox
Télécharger

Uplea
Télécharger

1fichier
Télécharger

Uploaded
Télécharger

Rapidgator
Télécharger

TurboBit
Télécharger

NFO :

Afficher / Masquer le texte 386fde0a82a2c96f239baea6f928293b » class= »text_spoiler » style= »display:none; »>General
Format : Matroska
Format version : Version 4 / Version 2
File size : 3.76 GiB
Duration : 1h 21mn
Overall bit rate : 6 565 Kbps
Encoded date : UTC 2015-10-11 23:36:27
Writing application : mkvmerge v8.3.0 (‘Over the Horizon’) 32bit
Writing library : libebml v1.3.1 + libmatroska v1.4.2
DURATION : 01:21:46.368000000
NUMBER_OF_FRAMES : 153324
NUMBER_OF_BYTES : 274756608
_STATISTICS_WRITING_APP : mkvmerge v8.3.0 (‘Over the Horizon’) 32bit
_STATISTICS_WRITING_DATE_UTC : 2015-10-11 23:36:27
_STATISTICS_TAGS : BPS DURATION NUMBER_OF_FRAMES NUMBER_OF_BYTES

Video
ID : 1
Format : AVC
Format/Info : Advanced Video Codec
Format profile : [email protected]
Format settings, CABAC : Yes
Format settings, ReFrames : 5 frames
Codec ID : V_MPEG4/ISO/AVC
Duration : 1h 21mn
Bit rate : 6 119 Kbps
Width : 1 280 pixels
Height : 544 pixels
Display aspect ratio : 2.35:1
Frame rate mode : Constant
Frame rate : 23.976 fps
Color space : YUV
Chroma subsampling : 4:2:0
Bit depth : 8 bits
Scan type : Progressive
Bits/(Pixel*Frame) : 0.367
Stream size : 3.43 GiB (91%)
Writing library : x264 core 144 r2525 40bb568
Encoding settings : cabac=1 / ref=5 / deblock=1:0:0 / analyse=0x3:0x133 / me=umh / subme=7 / psy=1 / psy_rd=1.00:0.00 / mixed_ref=1 / me_range=16 / chroma_me=1 / trellis=1 / 8x8dct=1 / cqm=0 / deadzone=21,11 / fast_pskip=0 / chroma_qp_offset=-2 / threads=60 / lookahead_threads=4 / sliced_threads=0 / nr=0 / decimate=1 / interlaced=0 / bluray_compat=0 / constrained_intra=0 / bframes=3 / b_pyramid=2 / b_adapt=1 / b_bias=0 / direct=1 / weightb=1 / open_gop=0 / weightp=2 / keyint=250 / keyint_min=23 / scenecut=40 / intra_refresh=0 / rc_lookahead=40 / rc=2pass / mbtree=1 / bitrate=6119 / ratetol=1.0 / qcomp=0.60 / qpmin=0 / qpmax=69 / qpstep=4 / cplxblur=20.0 / qblur=0.5 / ip_ratio=1.40 / aq=1:1.00
Language : English
Default : Yes
Forced : No
DURATION : 01:21:58.297000000
NUMBER_OF_FRAMES : 117921
NUMBER_OF_BYTES : 3760402764
_STATISTICS_WRITING_APP : mkvmerge v8.3.0 (‘Over the Horizon’) 32bit
_STATISTICS_WRITING_DATE_UTC : 2015-10-11 23:36:27
_STATISTICS_TAGS : BPS DURATION NUMBER_OF_FRAMES NUMBER_OF_BYTES

Audio
ID : 2
Format : AC-3
Format/Info : Audio Coding 3
Mode extension : CM (complete main)
Format settings, Endianness : Big
Codec ID : A_AC3
Duration : 1h 21mn
Bit rate mode : Constant
Bit rate : 448 Kbps
Channel(s) : 6 channels
Channel positions : Front: L C R, Side: L R, LFE
Sampling rate : 48.0 KHz
Bit depth : 16 bits
Compression mode : Lossy
Delay relative to video : 24ms
Stream size : 263 MiB (7%)
Language : French
Default : Yes
Forced : Yes

Menu
00:00:00.000 : en:00:00:00.000
00:03:46.977 : en:00:03:46.977
00:15:53.661 : en:00:15:53.661
00:24:35.683 : en:00:24:35.683
00:38:08.536 : en:00:38:08.536
00:50:57.263 : en:00:50:57.263
01:13:09.802 : en:01:13:09.802
01:19:05.240 : en:01:19:05.240
01:21:46.527 : en:01:21:46.527