Telecharger Annie Hall [DVDRiP] French

Qualité DVDRiP | VOSTFR

Annie Hall

Annie Hall

Annie Hall

Origine du film : Américain
Réalisateur : Woody Allen
Acteurs : Woody Allen, Diane Keaton, Tony Roberts
Genre : Comédie dramatique
Durée : 1h 33min
Année de production : 1977
Note spectateurs : Annie Hall

; »>3,9/5 (1 958)
Bande annonce :

747ed7850b72bbaab7fec096c9d72a75

19453559″>Cliquez-ici pour voir la bande annonce 747ed7850b72bbaab7fec096c9d72a75″> 19453559

747ed7850b72bbaab7fec096c9d72a75

Annie Hall

A l'aube de ses quarante ans, Alvy Singer fait le bilan de la situation. Une introspection sur sa dernière rencontre, Annie Hall, qui vient de le quitter, et un hommage à la ville qu'il aime, New York.

Nom de la release : Annie Hall.VOSTFR.TSC-Paradize 27387″ style= »display:inline; »>

Qualité : DVDRiP
Format : XviD
Langue : Anglais
Sous-titre : Français
Taille totale : 1050 Mo

1fichier
Télécharger

Uptobox
Télécharger

Free
Télécharger

Uploaded
Télécharger

Rapidgator
Télécharger

TurboBit
Télécharger

Mega
Télécharger

NFO :

Afficher / Masquer le texte 3b3694912823261f72746054de08fb4d » class= »text_spoiler » style= »display:none; »>Format : AVI
Format/Info : Audio Video Interleave
File size : 1.03 GiB
Duration : 1h 29mn
Overall bit rate : 1 640 Kbps
Writing application : VirtualDubMod 1.5.10.2 (build 2542/release)
Writing library : VirtualDubMod build 2542/release

Video
ID : 0
Format : MPEG-4 Visual
Format profile : Advanced [email protected]
Format settings, BVOP : 1
Format settings, QPel : No
Format settings, GMC : No warppoints
Format settings, Matrix : Default (H.263)
Muxing mode : Packed bitstream
Codec ID : XVID
Codec ID/Hint : XviD
Duration : 1h 29mn
Bit rate : 1 500 Kbps
Width : 720 pixels
Height : 404 pixels
Display aspect ratio : 16:9
Frame rate : 29.970 fps
Color space : YUV
Chroma subsampling : 4:2:0
Bit depth : 8 bits
Scan type : Progressive
Compression mode : Lossy
Bits/(Pixel*Frame) : 0.172
Stream size : 961 MiB (91%)
Writing library : XviD 64

Audio
ID : 1
Format : MPEG Audio
Format version : Version 1
Format profile : Layer 3
Codec ID : 55
Codec ID/Hint : MP3
Duration : 1h 29mn
Bit rate mode : Constant
Bit rate : 128 Kbps
Channel(s) : 2 channels
Sampling rate : 48.0 KHz
Compression mode : Lossy
Stream size : 82.0 MiB (8%)
Alignment : Aligned on interleaves
Interleave, duration : 33 ms (1.00 video frame)
Interleave, preload duration : 504 ms
Writing library : LAME3.98

Jeux Gratuit
15354131_1854970838071206_1069261547_o.png