Telecharger Antartica, prisonniers du froid [BLURAY 720p] French

(TRUEFRENCH = Vraie voix française)

BLURAY 720p | MULTiLANGUES (Avec TRUEFRENCH)

Antartica, prisonniers du froid

Antartica, prisonniers du froid

Antartica, prisonniers du froid

Origine du film : Américain
Réalisateur : Frank Marshall
Acteurs : Paul Walker, Jason Biggs, Bruce Greenwood
Genre : Aventure, Drame
Durée : 2h0min
Date de sortie : 26 avril 2006
Année de production : 2005
Titre Original : Eight Below
Distribué par : Buena Vista International
Note presse : Antartica, prisonniers du froid 3,0/5
Note spectateurs : Antartica, prisonniers du froid

; »>3,6/5 (1 981)
Bande annonce :

bcd8bcb820c47093e3133d2cdea85076

18601281″>Cliquez-ici pour voir la bande annonce bcd8bcb820c47093e3133d2cdea85076″> 18601281

bcd8bcb820c47093e3133d2cdea85076

Antartica, prisonniers du froid

Alors qu'ils mènent une expédition scientifique en plein Antarctique, le guide Jerry Shepard et le géologue Davis McClaren sont victimes d'un accident qui aurait pu être fatal si leurs chiens de traîneau ne les avaient pas tirés d'affaire.Evacués d'urgence dans des conditions extrêmes, Jerry est contraint d'abandonner ses chiens au coeur d'un des hivers les plus redoutables que la zone polaire ait connus.Livrés à eux-mêmes, les huit animaux vont tenter de survivre dans une nature aussi majestueuse qu'hostile. Incapable d'oublier ses compagnons à quatre pattes, Jerry tente par tous les moyens de retourner sur place, mais les conditions météo l'en empêchent. Face aux pires conditions qui soient, humains et chiens vont tout affronter pour se retrouver…
61488″ style= »display:inline; »>

Antartica, prisonniers du froid

Qualité : BLURAY 720p
Format : MKV
Sous-titre : Français
Découpé avec : Winrar
Nombre de fichiers : 8 Fichiers
Taille des fichiers : 1000 Mo + 470 Mo

Antartica, prisonniers du froid

Antartica.Prisonniers.Du.Froid.2006.MULTi.720p.BluRay.X264-DREAM ( 7470 Mo)

Uptobox
Télécharger

Uplea
Télécharger

1fichier
Télécharger

Uploaded
Télécharger

Rapidgator
Télécharger

TurboBit
Télécharger

[ 1 lien Premium – 7,6 Go ]

Uptobox
Télécharger

Uplea
Télécharger

1fichier
Télécharger

TurboBit
Télécharger

NFO :

Afficher / Masquer le texte a3b2a3afb55916e444dd95588cafdb9f » class= »text_spoiler » style= »display:none; »>Antartica.Prisonniers.Du.Froid.2006.MULTi.720p.BluRay.X264-DREAM
Format : Matroska
Format version : Version 4 / Version 2
File size : 7.30 GiB
Duration : 2h 0mn
Overall bit rate : 8 678 Kbps
Encoded date : UTC 2014-09-21 10:24:32
Writing application : mkvmerge v6.9.0 (‘On Duende’) 32bit built on Apr 18 2014 12:49:35
Writing library : libebml v1.3.0 + libmatroska v1.4.1

Video
ID : 1
Format : AVC
Format/Info : Advanced Video Codec
Format profile : [email protected]
Format settings, CABAC : Yes
Format settings, ReFrames : 9 frames
Codec ID : V_MPEG4/ISO/AVC
Duration : 2h 0mn
Bit rate : 6 500 Kbps
Width : 1 280 pixels
Height : 720 pixels
Display aspect ratio : 16:9
Frame rate mode : Constant
Frame rate : 23.976 fps
Color space : YUV
Chroma subsampling : 4:2:0
Bit depth : 8 bits
Scan type : Progressive
Bits/(Pixel*Frame) : 0.294
Stream size : 5.35 GiB (73%)
Writing library : x264 core 138 r2358 9e941d1
Encoding settings : cabac=1 / ref=9 / deblock=1:-3:-3 / analyse=0x3:0x113 / me=umh / subme=11 / psy=1 / psy_rd=0.96:0.04 / mixed_ref=1 / me_range=128 / chroma_me=1 / trellis=2 / 8x8dct=1 / cqm=0 / deadzone=6,6 / fast_pskip=0 / chroma_qp_offset=-2 / threads=12 / lookahead_threads=2 / sliced_threads=0 / nr=0 / decimate=1 / interlaced=0 / bluray_compat=0 / constrained_intra=0 / bframes=8 / b_pyramid=2 / b_adapt=2 / b_bias=0 / direct=1 / weightb=1 / open_gop=1 / weightp=2 / keyint=240 / keyint_min=23 / scenecut=40 / intra_refresh=0 / rc_lookahead=240 / rc=2pass / mbtree=1 / bitrate=6500 / ratetol=1.0 / qcomp=0.60 / qpmin=0 / qpmax=69 / qpstep=4 / cplxblur=20.0 / qblur=0.5 / vbv_maxrate=50000 / vbv_bufsize=50000 / nal_hrd=none / ip_ratio=1.40 / aq=2:1.00
Language : English
Default : Yes
Forced : Yes
Color primaries : BT.709
Transfer characteristics : BT.709
Matrix coefficients : BT.709

Audio #1
ID : 2
Format : DTS
Format/Info : Digital Theater Systems
Mode : 16
Format settings, Endianness : Big
Codec ID : A_DTS
Duration : 2h 0mn
Bit rate mode : Constant
Bit rate : 1 509 Kbps
Channel(s) : 6 channels
Channel positions : Front: L C R, Side: L R, LFE
Sampling rate : 48.0 KHz
Bit depth : 24 bits
Compression mode : Lossy
Stream size : 1.27 GiB (17%)
Title : DTS 5.1 FR
Language : French
Default : Yes
Forced : Yes

Audio #2
ID : 3
Format : AC-3
Format/Info : Audio Coding 3
Mode extension : CM (complete main)
Format settings, Endianness : Big
Codec ID : A_AC3
Duration : 2h 0mn
Bit rate mode : Constant
Bit rate : 640 Kbps
Channel(s) : 6 channels
Channel positions : Front: L C R, Side: L R, LFE
Sampling rate : 48.0 KHz
Bit depth : 16 bits
Compression mode : Lossy
Stream size : 551 MiB (7%)
Title : AC3 5.1 ENG
Language : English
Default : No
Forced : No

Text #1
ID : 4
Format : UTF-8
Codec ID : S_TEXT/UTF8
Codec ID/Info : UTF-8 Plain Text
Title : SRT Complet FR
Language : French
Default : No
Forced : No

Text #2
ID : 5
Format : PGS
Codec ID : S_HDMV/PGS
Codec ID/Info : The same subtitle format used on BDs/HD-DVDs
Title : PGS Complet + Forced FR
Language : French
Default : No
Forced : No

Text #3
ID : 6
Format : UTF-8
Codec ID : S_TEXT/UTF8
Codec ID/Info : UTF-8 Plain Text
Title : SRT Forced FR
Language : French
Default : Yes
Forced : Yes

Text #4
ID : 7
Format : PGS
Codec ID : S_HDMV/PGS
Codec ID/Info : The same subtitle format used on BDs/HD-DVDs
Title : PGS Complet ENG
Language : English
Default : No
Forced : No

Menu
00:00:00.000 : en:00:00:00.000
00:04:23.930 : en:00:04:23.930
00:14:59.440 : en:00:14:59.440
00:22:55.791 : en:00:22:55.791
00:30:11.768 : en:00:30:11.768
00:39:54.517 : en:00:39:54.517
00:54:30.142 : en:00:54:30.142
01:01:40.280 : en:01:01:40.280
01:07:03.561 : en:01:07:03.561
01:19:24.760 : en:01:19:24.760
01:28:36.228 : en:01:28:36.228
01:38:00.666 : en:01:38:00.666
01:43:04.053 : en:01:43:04.053
01:52:55.978 : en:01:52:55.978

Jeux Gratuit
15354131_1854970838071206_1069261547_o.png