Télécharger armageddon 2012 French

Qualité DVDRiP | FRENCH

armageddon 2012

armageddon 2012

armageddon 2012

Origine du film : Canadien
Réalisateur : David Hogan (II)
Acteurs : Julia Benson, Cameron Bright, Hiro Kanagawa
Genre : Science fiction
Durée : 1h 27 min
Date de sortie : Inconnu
Année de production : 2011
Titre Original : armageddon
Distribué par : Secrets de tournage – Année de production2011
Note spectateurs : armageddon 2012 5/5
Bande annonce :

5c20f733fa7ded043d61f6f520e2e3c4

19443016″>Cliquez-ici pour voir la bande annonce 5c20f733fa7ded043d61f6f520e2e3c4″> 19443016

5c20f733fa7ded043d61f6f520e2e3c4

armageddon 2012

La rotation de la Terre n'est plus normale et menace la population. Un groupe d'agents du gouvernement est chargé de localiser un satellite perdu qui pourrait devenir le dernier espoir de survie pour l'humanité.

Nom de la release : Armageddon.2012.FRENCH.DVDRIP.XVID 11299″ style= »display:inline; »>

Qualité : DVDRiP
Format : XviD
Langue : Français
Taille totale : 700 Mo

Uploaded.to
Télécharger

Turbobit
Télécharger

NFO :

Afficher / Masquer le texte 5502f9dab612c2d128aa0688526f943e » class= »text_spoiler » style= »display:none; »>General
Complete name : Armageddon .2012.french.dvdrip.xvid.avi
Format : AVI
Format/Info : Audio Video Interleave
File size : 715 MiB
Duration : 1h 27mn
Overall bit rate : 1 145 Kbps
Writing application : VirtualDubMod 1.5.10.2 Fr | www.trad-fr.com || (build 2540/release)
Writing library : VirtualDubMod build 2540/release

Video
ID : 0
Format : xvid
Codec ID : xvid
Duration : 1h 27mn
Bit rate : 1 008 Kbps
Width : 640 pixels
Height : 360 pixels
Display aspect ratio : 16:9
Frame rate : 25.000 fps
Bits/(Pixel*Frame) : 0.175
Stream size : 629 MiB (88%)

Audio
ID : 1
Format : MPEG Audio
Format version : Version 1
Format profile : Layer 3
Codec ID : 55
Codec ID/Hint : MP3
Duration : 1h 27mn
Bit rate mode : Constant
Bit rate : 128 Kbps
Channel(s) : 2 channels
Sampling rate : 48.0 KHz
Compression mode : Lossy
Stream size : 79.9 MiB (11%)
Alignment : Aligned on interleaves
Interleave, duration : 40 ms (1.00 video frame)
Interleave, preload duration : 504 ms
Writing library : LAME3.98r
Encoding settings : -m s -V 4 -q 2 -lowpass 17 -b 128