Telecharger Astérix chez les Bretons [DVDRiP] French

BLURAY 720p | FRENCH | DTS

Astérix chez les Bretons

Astérix chez les Bretons

Astérix chez les Bretons

Origine du film : Belge
Réalisateur : Pino van Lamsweerde
Acteurs : Roger Carel, Pierre Tornade, Serge Sauvion
Genre : Animation, Aventure, Famille, Comédie
Durée : 1h19min
Année de production : 1986
Note spectateurs : Astérix chez les Bretons

; »>3,5/5 (2 412)
Bande annonce :

b0e31e6b1f68efa50a4db9b86ea446eb

19366348″>Cliquez-ici pour voir la bande annonce b0e31e6b1f68efa50a4db9b86ea446eb »> 19366348

b0e31e6b1f68efa50a4db9b86ea446eb

Astérix chez les Bretons

Les Romains ont volé un peu de la célèbre potion magique de Panoramix. Astérix et Obélix vont tout faire pour récupérer ce bien précieux.
54347″ style= »display:inline; »>

Astérix chez les Bretons

Qualité : BLURAY 720p
Format : MKV
Langue : Français
Découpé avec : Winrar
Nombre de fichiers : 3 Fichiers
Taille des fichiers : 1000 Mo + 232 Mo

Astérix chez les Bretons

[Liens Interchangeables]

Asterix.Chez.Les.Bretons.1986.FRENCH.720P.BLURAY.X264-LECHTI ( 2232 Mo)

Uptobox
Télécharger

Uplea
Télécharger

1fichier
Télécharger

Free
Télécharger

Uploaded
Télécharger

Rapidgator
Télécharger

TurboBit
Télécharger

[ 1 lien Premium ]

Uptobox
Télécharger

Uplea
Télécharger

1fichier
Télécharger

Free
Upload en cour…

Uploaded
Télécharger

TurboBit
Télécharger

NFO :

Afficher / Masquer le texte fb726d062319a22b77e12ceea7ec2f53″ class= »text_spoiler » style= »display:none; »>General
Asterix.Chez.Les.Bretons.1986.FRENCH.720P.BLURAY.X264-LECHTI.mkv
Format : Matroska
Format version : Version 2
File size : 2.18 GiB
Duration : 1h 18mn
Overall bit rate mode : Variable
Overall bit rate : 3 969 Kbps
Movie name : bretons
Encoded date : UTC 2011-04-19 00:47:28
Writing application : mkvmerge v4.6.0 (‘Still Crazy After All These Years’) built on Mar 10 2011 02:50:32
Writing library : libebml v1.2.0 + libmatroska v1.1.0

Video
ID : 1
Format : AVC
Format/Info : Advanced Video Codec
Format profile : [email protected]
Format settings, CABAC : Yes
Format settings, ReFrames : 7 frames
Codec ID : V_MPEG4/ISO/AVC
Duration : 1h 18mn
Bit rate mode : Variable
Bit rate : 3 200 Kbps
Maximum bit rate : 25.0 Mbps
Width : 1 280 pixels
Height : 720 pixels
Display aspect ratio : 16:9
Frame rate : 23.976 fps
Color space : YUV
Chroma subsampling : 4:2:0
Bit depth : 8 bits
Scan type : Progressive
Bits/(Pixel*Frame) : 0.145
Stream size : 1.72 GiB (79%)
Writing library : x264 core 114 r1924 08d04a4
Encoding settings : cabac=1 / ref=7 / deblock=1:-3:-3 / analyse=0x3:0x133 / me=umh / subme=10 / psy=1 / psy_rd=1.00:0.00 / mixed_ref=1 / me_range=16 / chroma_me=1 / trellis=2 / 8x8dct=1 / cqm=0 / deadzone=21,11 / fast_pskip=1 / chroma_qp_offset=-2 / threads=6 / sliced_threads=0 / nr=0 / decimate=1 / interlaced=0 / constrained_intra=0 / bframes=7 / b_pyramid=0 / b_adapt=2 / b_bias=0 / direct=1 / weightb=1 / open_gop=0 / weightp=2 / keyint=240 / keyint_min=24 / scenecut=40 / intra_refresh=0 / rc_lookahead=40 / rc=2pass / mbtree=1 / bitrate=3200 / ratetol=1.0 / qcomp=0.60 / qpmin=0 / qpmax=69 / qpstep=4 / cplxblur=20.0 / qblur=0.5 / vbv_maxrate=25000 / vbv_bufsize=25000 / nal_hrd=vbr / ip_ratio=1.40 / aq=1:1.00
Default : Yes
Forced : No

Audio
ID : 2
Format : DTS
Format/Info : Digital Theater Systems
Codec ID : A_DTS
Duration : 1h 18mn
Bit rate mode : Constant
Bit rate : 754 Kbps
Channel(s) : 2 channels
Channel positions : Front: L R
Sampling rate : 48.0 KHz
Bit depth : 24 bits
Compression mode : Lossy
Stream size : 424 MiB (19%)
Language : French
Default : Yes
Forced : No

Jeux Gratuit
15354131_1854970838071206_1069261547_o.png