Telecharger Astérix et la surprise de César [DVDRiP] French

BLURAY 720p | FRENCH

Astérix et la surprise de César

Astérix et la surprise de César

Astérix et la surprise de César

Origine du film : Belge, Français
Réalisateur : Paul Brizzi
Acteurs : Roger Carel, Pierre Tornade, Pierre Mondy
Genre : Animation
Durée : 2h1min
Année de production : 1985
Note spectateurs : Astérix et la surprise de César

; »>2,9/5 (1 698)
Bande annonce :

c15c096486473d6e4e08b3c3140dbd72

18742951″>Cliquez-ici pour voir la bande annonce c15c096486473d6e4e08b3c3140dbd72″> 18742951

c15c096486473d6e4e08b3c3140dbd72

Astérix et la surprise de César

Lorsque Falbala et Tragicomix sont kidnappés, celui qui leur a porté atteinte n'imagine pas qu'il vient de réveiller la colère du petit village gaulois. D'autant qu'Obélix est amoureux de Falbala…
54425″ style= »display:inline; »>

Astérix et la surprise de César

Qualité : BLURAY 720p
Format : MKV
Langue : Français
Découpé avec : Winrar
Nombre de fichiers : 3 Fichiers
Taille des fichiers : 1000 Mo + 231 Mo

Astérix et la surprise de César

[Liens Interchangeables]

Asterix.Et.La.Surprise.De.Cesar.1985.FRENCH.720P.BLURAY.X264-LECHTI ( 2231 Mo)

Uptobox
Télécharger

Uplea
Télécharger

1fichier
Télécharger

Free
Télécharger

Uploaded
Télécharger

Rapidgator
Télécharger

TurboBit
Télécharger

[ 1 lien Premium ]

Uptobox
Télécharger

Uplea
Télécharger

1fichier
Télécharger

Free
Télécharger

Uploaded
Télécharger

TurboBit
Télécharger

NFO :

Afficher / Masquer le texte 9c91271567d8ad5ea4aebbccd7351322″ class= »text_spoiler » style= »display:none; »>General kingainer51/Asterix.Et.La.Surprise.De.Cesar.1985.FRENCH.720P.BLURAY.X264-LECHTI.mkv
Format : Matroska
Format version : Version 2
File size : 2.18 GiB
Duration : 1h 16mn
Overall bit rate mode : Variable
Overall bit rate : 4 079 Kbps
Movie name : cesar
Encoded date : UTC 2011-04-18 17:09:01
Writing application : mkvmerge v4.6.0 (‘Still Crazy After All These Years’) built on Mar 10 2011 02:50:32
Writing library : libebml v1.2.0 + libmatroska v1.1.0

Video
ID : 1
Format : AVC
Format/Info : Advanced Video Codec
Format profile : [email protected]
Format settings, CABAC : Yes
Format settings, ReFrames : 7 frames
Codec ID : V_MPEG4/ISO/AVC
Duration : 1h 16mn
Bit rate mode : Variable
Bit rate : 3 311 Kbps
Maximum bit rate : 25.0 Mbps
Width : 1 280 pixels
Height : 720 pixels
Display aspect ratio : 16:9
Frame rate : 23.976 fps
Color space : YUV
Chroma subsampling : 4:2:0
Bit depth : 8 bits
Scan type : Progressive
Bits/(Pixel*Frame) : 0.150
Stream size : 1.73 GiB (80%)
Writing library : x264 core 114 r1924 08d04a4
Encoding settings : cabac=1 / ref=7 / deblock=1:-3:-3 / analyse=0x3:0x133 / me=umh / subme=10 / psy=1 / psy_rd=1.00:0.00 / mixed_ref=1 / me_range=16 / chroma_me=1 / trellis=2 / 8x8dct=1 / cqm=0 / deadzone=21,11 / fast_pskip=1 / chroma_qp_offset=-2 / threads=6 / sliced_threads=0 / nr=0 / decimate=1 / interlaced=0 / constrained_intra=0 / bframes=7 / b_pyramid=0 / b_adapt=2 / b_bias=0 / direct=1 / weightb=1 / open_gop=0 / weightp=2 / keyint=240 / keyint_min=24 / scenecut=40 / intra_refresh=0 / rc_lookahead=40 / rc=2pass / mbtree=1 / bitrate=3311 / ratetol=1.0 / qcomp=0.60 / qpmin=0 / qpmax=69 / qpstep=4 / cplxblur=20.0 / qblur=0.5 / vbv_maxrate=25000 / vbv_bufsize=25000 / nal_hrd=vbr / ip_ratio=1.40 / aq=1:1.00
Default : Yes
Forced : No

Audio
ID : 2
Format : DTS
Format/Info : Digital Theater Systems
Codec ID : A_DTS
Duration : 1h 16mn
Bit rate mode : Constant
Bit rate : 754 Kbps
Channel(s) : 2 channels
Channel positions : Front: L R
Sampling rate : 48.0 KHz
Bit depth : 24 bits
Compression mode : Lossy
Stream size : 413 MiB (18%)
Language : French
Default : Yes
Forced : No

Jeux Gratuit
15354131_1854970838071206_1069261547_o.png