Télécharger Astérix – Le Domaine des Dieux Blu-Ray 3D

Qualité BLURAY 3D TB | FRENCH | son DTS

Astérix - Le Domaine des Dieux

Astérix - Le Domaine des Dieux

Origine du film : Français, Belge
Réalisateur : Louis Clichy
Acteurs : Roger Carel, Guillaume Briat, Lorànt Deutsch
Genre : Animation, Aventure, Comédie
Durée : 1h26min
Date de sortie : 26 novembre 2014
Année de production : 2014
Distribué par : SND
Note presse : Astérix - Le Domaine des Dieux 3,7/5
Note spectateurs : Astérix - Le Domaine des Dieux 4/5 (4 004)
Bande annonce :

8990f22fc35117d13d622c4060ce52ef

19548663″>Cliquez-ici pour voir la bande annonce 8990f22fc35117d13d622c4060ce52ef »> 19548663

8990f22fc35117d13d622c4060ce52ef

Astérix - Le Domaine des Dieux

Nous sommes en 50 avant Jésus-Christ ; toute la Gaule est occupée par les Romains… Toute ? Non ! Car un village peuplé d’irréductibles Gaulois résiste encore et toujours à l’envahisseur. Exaspéré par la situation, Jules César décide de changer de tactique : puisque ses armées sont incapables de s’imposer par la force, c’est la civilisation romaine elle-même qui saura  séduire ces barbares Gaulois. Il fait donc construire à côté du village un domaine résidentiel luxueux destiné à des propriétaires romains. : « Le Domaine des Dieux  ». Nos amis gaulois résisteront ils à l’appât du gain et au confort romain ? Leur village deviendra-t-il une simple attraction touristique ? Astérix et Obélix vont tout faire pour contrecarrer les plans de César.
79588″ style= »display:inline; »>

Astérix - Le Domaine des Dieux

Format : MKV

Astérix - Le Domaine des Dieux

Astérix – Le Domaine des Dieux.2014.3D.VFF.1080p.Top.Bottom.BluRay.x264.DTS.AC-3-H72-3D

(5702 Mo)

[Liens Interchangeables entre hébergeurs: 5x 1000 Mo + 1x 702 Mo]

Uptobox
Télécharger

Uplea
Télécharger

1fichier
Télécharger

Uploaded
Télécharger

Rapidgator
Télécharger

TurboBit
Télécharger

1 Lien Premium – 5.6 Go

Uptobox
Télécharger

Uplea
Télécharger

1fichier
Télécharger

Uploaded
Télécharger

TurboBit
Télécharger

NFO :

Afficher / Masquer le texte d8819d33d91bc0b5011f73c39c3a694d » class= »text_spoiler » style= »display:none; »>General
Unique ID : 235760022510192870267288499093493135897 (0xB15DBA8C5B68EE86A7BAF7483ABA3A19)
Complete name : X:Astérix – Le Domaine des Dieux.2014.3D.VFF.1080p.Top.Bottom.BluRay.x264.DTS.AC-3-H72-3D.mkv
Format : Matroska
Format version : Version 4 / Version 2
File size : 5.57 GiB
Duration : 1h 25mn
Overall bit rate : 9 316 Kbps
Encoded date : UTC 2015-03-25 15:15:38
Writing application : mkvmerge v6.8.0 (‘Theme for Great Cities’) 32bit built on Mar 2 2014 21:27:07
Writing library : libebml v1.3.0 + libmatroska v1.4.1
Cover : Yes

Video
ID : 1
Format : AVC
Format/Info : Advanced Video Codec
Format profile : [email protected]
Format settings, CABAC : Yes
Format settings, ReFrames : 4 frames
Codec ID : V_MPEG4/ISO/AVC
Duration : 1h 25mn
Bit rate : 6 982 Kbps
Width : 1 920 pixels
Height : 1 080 pixels
Display aspect ratio : 16:9
Frame rate mode : Constant
Frame rate : 23.976 fps
Color space : YUV
Chroma subsampling : 4:2:0
Bit depth : 8 bits
Scan type : Progressive
Bits/(Pixel*Frame) : 0.140
Stream size : 4.17 GiB (75%)
Writing library : x264 core 144 r2525kMod 40bb568
Encoding settings : cabac=1 / ref=4 / deblock=1:-3:-3 / analyse=0x3:0x113 / me=umh / subme=10 / psy=1 / fade_compensate=0.00 / psy_rd=1.00:0.00 / mixed_ref=1 / me_range=32 / chroma_me=1 / trellis=2 / 8x8dct=1 / cqm=0 / deadzone=21,11 / fast_pskip=0 / chroma_qp_offset=-2 / threads=12 / lookahead_threads=2 / sliced_threads=0 / nr=0 / decimate=1 / interlaced=0 / bluray_compat=0 / constrained_intra=0 / fgo=0 / bframes=8 / b_pyramid=2 / b_adapt=2 / b_bias=0 / direct=3 / weightb=1 / open_gop=0 / weightp=2 / keyint=250 / keyint_min=23 / scenecut=40 / intra_refresh=0 / rc_lookahead=50 / rc=crf / mbtree=0 / crf=17.0000 / qcomp=0.60 / qpmin=0 / qpmax=69 / qpstep=4 / vbv_maxrate=62500 / vbv_bufsize=78125 / crf_max=0.0 / nal_hrd=none / filler=0 / frame-packing=4 / ip_ratio=1.40 / pb_ratio=1.30 / aq=1:1.00
Language : Russian
Default : Yes
Forced : No

Audio #1
ID : 2
Format : AC-3
Format/Info : Audio Coding 3
Mode extension : CM (complete main)
Format settings, Endianness : Big
Codec ID : A_AC3
Duration : 1h 25mn
Bit rate mode : Constant
Bit rate : 640 Kbps
Channel(s) : 6 channels
Channel positions : Front: L C R, Side: L R, LFE
Sampling rate : 48.0 KHz
Bit depth : 16 bits
Compression mode : Lossy
Delay relative to video : 24ms
Stream size : 392 MiB (7%)
Title : French AC-3 16 [email protected] kbps
Language : French
Default : No
Forced : No

Audio #2
ID : 3
Format : DTS
Format/Info : Digital Theater Systems
Mode : 16
Format settings, Endianness : Big
Codec ID : A_DTS
Duration : 1h 25mn
Bit rate mode : Constant
Bit rate : 1 509 Kbps
Channel(s) : 6 channels
Channel positions : Front: L C R, Side: L R, LFE
Sampling rate : 48.0 KHz
Bit depth : 24 bits
Compression mode : Lossy
Delay relative to video : 2ms
Stream size : 924 MiB (16%)
Title : French DTS 24 [email protected] kbps
Language : French
Default : Yes
Forced : No

Menu
00:00:00.000 : :CHAPTER №01
00:09:02.208 : :CHAPTER №02
00:20:30.187 : :CHAPTER №03
00:31:00.525 : :CHAPTER №04
00:44:12.316 : :CHAPTER №05
00:56:11.201 : :CHAPTER №06
01:04:48.718 : :CHAPTER №07
01:17:21.762 : :CHAPTER №08