Telecharger Au revoir, à jamais [BLURAY 720p] French

(TRUEFRENCH = Vraie voix française)

Qualité BLURAY 720p | MULTiLANGUES (Avec TRUEFRENCH) | son DTS

Au revoir, à jamais

Au revoir, à jamais

Au revoir, à jamais

Origine du film : Américain
Réalisateur : Renny Harlin
Acteurs : Geena Davis, Samuel L. Jackson, Brian Cox
Genre : Action, Thriller, Drame
Durée : 2h0min
Date de sortie : 11 décembre 1996
Année de production : 1996
Titre Original : The Long Kiss Goodnight
Distribué par : Metropolitan FilmExport
Note spectateurs : Au revoir, à jamais 2,8/5 (1 687)
Bande annonce :

5ef69688d60609945c074db28a0c28b0

19453910″>Cliquez-ici pour voir la bande annonce 5ef69688d60609945c074db28a0c28b0″> 19453910

5ef69688d60609945c074db28a0c28b0

Au revoir, à jamais

Samantha Caine, paisible institutrice dans une petite ville, souffre d’amnésie. Un accident vient réveiller en elle un passé mysterieux et pour le moins agité. Epaulée par un détective privé à la morale douteuse, elle se lance dans la quête de sa véritable identité et découvre qu’elle est aussi un agent surentrainé, impliqué dans les activités les plus inavouables du gouvernement américain.
100571″ style= »display:inline; »>

Au revoir, à jamais

Format : MKV
Découpé avec : Winrar

Au revoir, à jamais

Au.Revoir.A.Jamais.1996.Multi.720p.BluRay.x264-STEAL

(6629 Mo)

[Liens Interchangeables entre hébergeurs: 6x 1000 Mo + 1x 629 Mo]

Uptobox
Télécharger

Uplea
Télécharger

1fichier
Télécharger

Uploaded
Télécharger

Rapidgator
Télécharger

TurboBit
Télécharger

[ Liens Premium ]

Uptobox
Télécharger

Uplea
Télécharger

1fichier
Télécharger

Uploaded
Télécharger

TurboBit
Télécharger

NFO :

Afficher / Masquer le texte 1feda4162156ad72335d45a99650602e » class= »text_spoiler » style= »display:none; »>AU REVOIR A JAMAIS 1996 VFF Multi DTS 5.1 BluRay x264 720p-STEAL.zone-telechargement.com.mkv
Format : Matroska
Format version : Version 4 / Version 2
File size : 6.47 GiB
Duration : 2h 0mn
Overall bit rate : 7 688 Kbps
Encoded date : UTC 2013-05-05 18:23:30
Writing application : mkvmerge v6.2.0 (‘Promised Land’) built on Apr 28 2013 12:22:01
Writing library : libebml v1.3.0 + libmatroska v1.4.0

Video
ID : 1
Format : AVC
Format/Info : Advanced Video Codec
Format profile : [email protected]
Format settings, CABAC : Yes
Format settings, ReFrames : 9 frames
Codec ID : V_MPEG4/ISO/AVC
Duration : 2h 0mn
Bit rate : 4 670 Kbps
Width : 1 280 pixels
Height : 720 pixels
Display aspect ratio : 16:9
Frame rate mode : Constant
Frame rate : 23.976 fps
Color space : YUV
Chroma subsampling : 4:2:0
Bit depth : 8 bits
Scan type : Progressive
Bits/(Pixel*Frame) : 0.211
Stream size : 3.80 GiB (59%)
Title : AU REVOIR A JAMAIS 1996 High [email protected] Resolution 1280p/ 720p Frame rate 23.976 fps Release °V°Eyes
Writing library : x264 core 130 r2273 b3065e6
Encoding settings : cabac=1 / ref=9 / deblock=1:-3:-3 / analyse=0x3:0x113 / me=umh / subme=11 / psy=1 / psy_rd=0.93:0.10 / mixed_ref=1 / me_range=128 / chroma_me=1 / trellis=2 / 8x8dct=1 / cqm=0 / deadzone=21,11 / fast_pskip=0 / chroma_qp_offset=-2 / threads=12 / lookahead_threads=2 / sliced_threads=0 / nr=0 / decimate=1 / interlaced=0 / bluray_compat=0 / constrained_intra=0 / bframes=8 / b_pyramid=2 / b_adapt=2 / b_bias=0 / direct=1 / weightb=1 / open_gop=1 / weightp=2 / keyint=240 / keyint_min=23 / scenecut=40 / intra_refresh=0 / rc_lookahead=240 / rc=2pass / mbtree=1 / bitrate=4670 / ratetol=1.0 / qcomp=0.60 / qpmin=0 / qpmax=69 / qpstep=4 / cplxblur=20.0 / qblur=0.5 / vbv_maxrate=50000 / vbv_bufsize=50000 / nal_hrd=none / ip_ratio=1.40 / aq=2:1.00
Language : English
Default : Yes
Forced : No
Color primaries : BT.709
Transfer characteristics : BT.709
Matrix coefficients : BT.709

Audio #1
ID : 2
Format : DTS
Format/Info : Digital Theater Systems
Mode : 16
Format settings, Endianness : Big
Codec ID : A_DTS
Duration : 2h 0mn
Bit rate mode : Constant
Bit rate : 1 509 Kbps
Channel count : 6 channels
Channel positions : Front: L C R, Side: L R, LFE
Sampling rate : 48.0 KHz
Bit depth : 16 bits
Compression mode : Lossy
Stream size : 1.27 GiB (20%)
Title : VFF DTS 5.1_1509 kbps 16-bit 48khz
Language : French
Default : Yes
Forced : No

Audio #2
ID : 3
Format : DTS
Format/Info : Digital Theater Systems
Mode : 16
Format settings, Endianness : Big
Codec ID : A_DTS
Duration : 2h 0mn
Bit rate mode : Constant
Bit rate : 1 509 Kbps
Channel count : 6 channels
Channel positions : Front: L C R, Side: L R, LFE
Sampling rate : 48.0 KHz
Bit depth : 24 bits
Compression mode : Lossy
Stream size : 1.27 GiB (20%)
Title : V.O DTS 5.1_1509 kbps 24-bit 48khz
Language : English
Default : No
Forced : No

Text #1
ID : 4
Format : UTF-8
Codec ID : S_TEXT/UTF8
Codec ID/Info : UTF-8 Plain Text
Title : Sous-titres Français forcés.SRT
Language : French
Default : Yes
Forced : No

Text #2
ID : 5
Format : UTF-8
Codec ID : S_TEXT/UTF8
Codec ID/Info : UTF-8 Plain Text
Title : Sous-titres Français complets.SRT
Language : French
Default : No
Forced : No

Text #3
ID : 6
Format : UTF-8
Codec ID : S_TEXT/UTF8
Codec ID/Info : UTF-8 Plain Text
Title : Full Subtitles English.SRT
Language : English
Default : No
Forced : No

Menu
00:00:00.000 : en: 01. Opening Credits
00:09:05.920 : en: 02. Main Title
00:22:07.034 : en: 03. Bed Agreement
00:32:35.871 : en: 04. Party Crashers
00:47:33.934 : en: 05. Eye-Opening Chat
01:03:52.704 : en: 06. Mom’s Cooking
01:15:14.593 : en: 07. A Cold, Hard Lesson
01:28:16.208 : en: 08. Visitor From the Past
01:36:53.850 : en: 09. Quest for the Truth
01:47:25.022 : en: 10. Calling Information