Telecharger Avengers : L'ère d'Ultron [BLURAY 720p] French

(TRUEFRENCH = Vraie voix française)

Qualité BLURAY 720p | TRUEFRENCH (VFi)

Avengers : L'ère d'Ultron

Avengers : L'ère d'Ultron

Origine du film : Américain
Réalisateur : Joss Whedon
Acteurs : Robert Downey Jr., Chris Evans, Mark Ruffalo
Genre : Action, Aventure, Science fiction
Durée : 2h22min
Date de sortie : 22 avril 2015
Année de production : 2015
Titre Original : The Avengers: Age of Ultron
Distribué par : The Walt Disney Company France
Note presse : Avengers : L'ère d'Ultron 2,9/5
Note spectateurs : Avengers : L'ère d'Ultron 4,1/5 (10 344)
Bande annonce :

368f87273ed634369a4fb97c93e3f9ee

19551828″>Cliquez-ici pour voir la bande annonce 368f87273ed634369a4fb97c93e3f9ee »> 19551828

368f87273ed634369a4fb97c93e3f9ee

Avengers : L'ère d'Ultron

Alors que Tony Stark tente de relancer un programme de maintien de la paix jusque-là suspendu, les choses tournent mal et les super-héros Iron Man, Captain America, Thor, Hulk, Black Widow et Hawkeye vont devoir à nouveau unir leurs forces pour combattre le plus puissant de leurs adversaires : le terrible Ultron, un être technologique terrifiant qui s’est juré d’éradiquer l’espèce humaine.Afin d’empêcher celui-ci d’accomplir ses sombres desseins, des alliances inattendues se scellent, les entraînant dans une incroyable aventure et une haletante course contre le temps…
97269″ style= »display:inline; »>

Avengers : L'ère d'Ultron

Format : MKV

Avengers : L'ère d'Ultron

Avengers.Age.Of.Ultron.2015.TRUEFRENCH.720p.BluRay.x264-AViTECH

(5638 Mo)

[Liens Interchangeables entre hébergeurs: 5x 1000 Mo + 1x 638 Mo]

Uptobox
Télécharger

Uplea
Télécharger

1fichier
Télécharger

Uploaded
Télécharger

Rapidgator
Télécharger

TurboBit
Télécharger

1 Lien Premium – 5.5 Go

Uptobox Premium
Télécharger

Uplea Premium
Télécharger

1fichier Premium
Télécharger

Uploaded Premium
Télécharger

TurboBit Premium
Télécharger

NFO :

Afficher / Masquer le texte 6d1db5661fcd1d46a415084a8e38b385″ class= »text_spoiler » style= »display:none; »>General
Unique ID : 251348948553027207887764829812186984648 (0xBD180BF14F6C7C20A17C227F96E4B0C8)
Complete name : Avengers.Age.Of.Ultron.2015.TRUEFRENCH.720p.BluRay.x264-AViTECH
Format : Matroska
Format version : Version 4 / Version 2
File size : 5.51 GiB
Duration : 2h 21mn
Overall bit rate : 5 584 Kbps
Encoded date : UTC 2015-09-08 16:58:18
Writing application : mkvmerge v8.3.0 (‘Over the Horizon’) 64bit
Writing library : libebml v1.3.1 + libmatroska v1.4.2
DURATION : 02:18:09.669000000
NUMBER_OF_FRAMES : 9
NUMBER_OF_BYTES : 310
_STATISTICS_WRITING_APP : mkvmerge v8.3.0 (‘Over the Horizon’) 64bit
_STATISTICS_WRITING_DATE_UT : 2015-09-08 16:58:18
_STATISTICS_TAGS : BPS DURATION NUMBER_OF_FRAMES NUMBER_OF_BYTES

Video
ID : 1
Format : AVC
Format/Info : Advanced Video Codec
Format profile : [email protected]
Format settings, CABAC : Yes
Format settings, ReFrames : 5 frames
Codec ID : V_MPEG4/ISO/AVC
Duration : 2h 21mn
Bit rate : 5 130 Kbps
Width : 1 280 pixels
Height : 536 pixels
Display aspect ratio : 2.40:1
Frame rate mode : Constant
Frame rate : 24.000 fps
Original frame rate : 23.976 fps
Color space : YUV
Chroma subsampling : 4:2:0
Bit depth : 8 bits
Scan type : Progressive
Bits/(Pixel*Frame) : 0.312
Stream size : 4.96 GiB (90%)
Writing library : x264 core 148 r2597 e86f3a1
Encoding settings : cabac=1 / ref=5 / deblock=1:0:0 / analyse=0x3:0x133 / me=umh / subme=7 / psy=1 / psy_rd=1.00:0.00 / mixed_ref=1 / me_range=16 / chroma_me=1 / trellis=1 / 8x8dct=1 / cqm=0 / deadzone=21,11 / fast_pskip=0 / chroma_qp_offset=-2 / threads=12 / lookahead_threads=2 / sliced_threads=0 / nr=0 / decimate=1 / interlaced=0 / bluray_compat=0 / constrained_intra=0 / bframes=3 / b_pyramid=2 / b_adapt=1 / b_bias=0 / direct=1 / weightb=1 / open_gop=0 / weightp=2 / keyint=250 / keyint_min=23 / scenecut=40 / intra_refresh=0 / rc_lookahead=40 / rc=2pass / mbtree=1 / bitrate=5130 / ratetol=1.0 / qcomp=0.60 / qpmin=0 / qpmax=69 / qpstep=4 / cplxblur=20.0 / qblur=0.5 / ip_ratio=1.40 / aq=1:1.00
Language : English
Default : Yes
Forced : No
DURATION : 02:21:10.250000000
NUMBER_OF_FRAMES : 203286
NUMBER_OF_BYTES : 5436457084
_STATISTICS_WRITING_APP : mkvmerge v8.3.0 (‘Over the Horizon’) 64bit
_STATISTICS_WRITING_DATE_UT : 2015-09-08 16:58:18
_STATISTICS_TAGS : BPS DURATION NUMBER_OF_FRAMES NUMBER_OF_BYTES

Audio
ID : 2
Format : AC-3
Format/Info : Audio Coding 3
Mode extension : CM (complete main)
Format settings, Endianness : Big
Codec ID : A_AC3
Duration : 2h 21mn
Bit rate mode : Constant
Bit rate : 448 Kbps
Channel(s) : 6 channels
Channel positions : Front: L C R, Side: L R, LFE
Sampling rate : 48.0 KHz
Compression mode : Lossy
Delay relative to video : 900ms
Stream size : 452 MiB (8%)
Language : French
Default : Yes
Forced : No

Text
ID : 3
Format : UTF-8
Codec ID : S_TEXT/UTF8
Codec ID/Info : UTF-8 Plain Text
Language : French
Default : Yes
Forced : No