Telecharger AVP: Alien vs. Predator [BLURAY 720p] French

Qualité BLURAY 720p | FRENCH | son DTS

AVP: Alien vs. Predator

AVP: Alien vs. Predator

Origine du film : Américain
Réalisateur : Paul W.S. Anderson
Acteurs : Lance Henriksen, Sanaa Lathan, Raoul Bova
Genre : Science fiction, Fantastique
Durée : 1h 40min
Date de sortie : 27 octobre 2004
Année de production : 2004
Distribué par : UFD
Note presse : AVP: Alien vs. Predator 2,5/5
Note spectateurs : AVP: Alien vs. Predator

; »>2,0/5 (10192)
Bande annonce :

d25c8d79fb2cd15be0dd20d1e61dda03

19460929″>Cliquez-ici pour voir la bande annonce d25c8d79fb2cd15be0dd20d1e61dda03″> 19460929

d25c8d79fb2cd15be0dd20d1e61dda03

AVP: Alien vs. Predator

Une mystérieuse onde de chaleur, émanant du coeur de la banquise, se propage à travers l’Antarctique. Pour étudier ce phénomène, Charles Bishop Weyland finance une expédition scientifique pilotée par Alexa Woods.
L’équipe découvre une pyramide renfermant des vestiges de civilisations aztèque, égyptienne et cambodgienne. Constituées d’un labyrinthe de « chambres », les issues se referment brutalement sur plusieurs membres de l’expédition.
Des Predators retiennent captive une reine Alien dont ils livrent les descendants aux jeunes Predators lors de rituels. 42829″ style= »display:inline; »>

AVP: Alien vs. Predator

Format : x264
Découpé avec : Winrar

AVP: Alien vs. Predator

Alien.Vs.Predator.EXTENDED.CUT.2004.FRENCH.720p.BluRay.DTS.x264-FHD

(4479 Mo)

[Liens Interchangeables entre hébergeurs: 4x 1000 Mo + 1x 479 Mo]

Uptobox
Télécharger

Uplea
Télécharger

1fichier
Télécharger

Uploaded
Télécharger

Rapidgator
Télécharger

TurboBit
Télécharger

[1 Lien PREMIUM : 1 x 4.36 GB]

Uptobox
Télécharger

Uplea
Télécharger

1fichier
Télécharger

Uploaded
Télécharger

Rapidgator
Télécharger

TurboBit
Télécharger

NFO :

Afficher / Masquer le texte f8fd7bd754ff6d44c2d9f204cf63af8a » class= »text_spoiler » style= »display:none; »>General
Format : Matroska
Format version : Version 1
File size : 4.37 GiB
Duration : 1h 40mn
Overall bit rate : 6 215 Kbps
Encoded date : UTC 2008-01-17 17:31:53
Writing application : mkvmerge v2.0.2 (‘You’re My Flame’) built on Feb 21 2007 23:40:55
Writing library : libebml v0.7.7 + libmatroska v0.8.1

Video
ID : 1
Format : AVC
Format/Info : Advanced Video Codec
Format profile : [email protected]
Format settings, CABAC : Yes
Format settings, ReFrames : 6 frames
Codec ID : V_MPEG4/ISO/AVC
Duration : 1h 40mn
Bit rate : 5 456 Kbps
Width : 1 280 pixels
Height : 544 pixels
Display aspect ratio : 2.35:1
Frame rate mode : Constant
Frame rate : 23.976 fps
Color space : YUV
Chroma subsampling : 4:2:0
Bit depth : 8 bits
Scan type : Progressive
Bits/(Pixel*Frame) : 0.327
Stream size : 3.76 GiB (86%)
Writing library : x264 core 54 svn-654
Encoding settings : cabac=1 / ref=3 / deblock=1:0:0 / analyse=0x3:0x133 / me=hex / subme=6 / brdo=1 / mixed_ref=1 / me_range=16 / chroma_me=1 / trellis=1 / 8x8dct=1 / cqm=0 / deadzone=21,11 / chroma_qp_offset=0 / threads=3 / nr=0 / decimate=1 / mbaff=0 / bframes=3 / b_pyramid=1 / b_adapt=1 / b_bias=0 / direct=1 / wpredb=1 / bime=1 / keyint=250 / keyint_min=25 / scenecut=40(pre) / rc=2pass / bitrate=5456 / ratetol=1.0 / rceq=’blurCplx^(1-qComp)’ / qcomp=0.60 / qpmin=10 / qpmax=51 / qpstep=4 / cplxblur=20.0 / qblur=0.5 / ip_ratio=1.40 / pb_ratio=1.30
Default : Yes
Forced : No

Audio
ID : 2
Format : DTS
Format/Info : Digital Theater Systems
Mode : 16
Format settings, Endianness : Big
Codec ID : A_DTS
Duration : 1h 40mn
Bit rate mode : Constant
Bit rate : 755 Kbps
Channel(s) : 6 channels
Channel positions : Front: L C R, Side: L R, LFE
Sampling rate : 48.0 KHz
Bit depth : 24 bits
Compression mode : Lossy
Stream size : 544 MiB (12%)
Default : Yes
Forced : No

Jeux Gratuit
15354131_1854970838071206_1069261547_o.png