Telecharger Babel [BLURAY 720p] French

(TRUEFRENCH = Vraie voix française)

BLURAY 720p | MULTiLANGUES (Avec TRUEFRENCH) | DTS

Babel

Babel

Babel

Origine du film : Français, américain, mexicain
Réalisateur : Alejandro González Iñárritu
Acteurs : Brad Pitt, Cate Blanchett, Gael García Bernal
Genre : Drame, Thriller
Durée : 2h15min
Date de sortie : 15 novembre 2006
Année de production : 2006
Distribué par : Mars Distribution
Note presse : Babel 3,6/5
Note spectateurs : Babel

; »>3,8/5 (15 460)
Bande annonce :

fc8ffb9646a580d40c10dcf6a9085fe0

18704777″>Cliquez-ici pour voir la bande annonce fc8ffb9646a580d40c10dcf6a9085fe0″> 18704777

fc8ffb9646a580d40c10dcf6a9085fe0

Babel

En plein désert marocain, un coup de feu retentit. Il va déclencher toute une série d'événements qui impliqueront un couple de touristes américains au bord du naufrage, deux jeunes Marocains auteurs d'un crime accidentel, une nourrice qui voyage illégalement avec deux enfants américains, et une adolescente japonaise rebelle dont le père est recherché par la police à Tokyo. Séparés par leurs cultures et leurs modes de vie, chacun de ces quatre groupes de personnes va cependant connaître une même destinée d'isolement et de douleur… 40269″ style= »display:inline; »>

Qualité : BLURAY 720p
Format : MKV
Langue : Anglais, Français
Sous-titre : Anglais, Français
Découpé avec : Winrar
Nombre de fichiers : 10 Fichiers
Taille des fichiers : 1000 Mo 356 Mo

[10 Liens Interchangeables : 9 x 1000 Mo 1 x 356 Mo]

Babel.2006.MULTi.720p.BluRay.DTS.x264-Ganesh ( 9356 Mo)

1fichier
Télécharger

Uptobox
Télécharger

Free
Upload en panne

Uploaded
Télécharger

Rapidgator
Télécharger

TurboBit
Télécharger

[1 Lien PREMIUM : 1 x 9.14 GB]

1fichier
Télécharger

Uptobox
Télécharger

TurboBit
Télécharger

[2 Liens PREMIUM]

Uploaded
Partie 1
Partie 2

NFO :

Afficher / Masquer le texte 9556bae2af716707d32d55e026abf2c9″ class= »text_spoiler » style= »display:none; »>Babel 2006 MULTI 720p BluRay DTS x264-Ganesh.mkv
Format : Matroska
Format version : Version 4 / Version 2
File size : 9.14 GiB
Duration : 2h 23mn
Overall bit rate : 9 134 Kbps
Encoded date : UTC 2013-03-25 19:20:08
Writing application : mkvmerge v6.1.0 ('Old Devil') built on Mar 2 2013 15:15:26
Writing library : libebml v1.3.0 libmatroska v1.4.0
Attachment : Yes / Yes

Video
ID : 1
Format : AVC
Format/Info : Advanced Video Codec
Format profile : [email protected]
Format settings, CABAC : Yes
Format settings, ReFrames : 8 frames
Codec ID : V_MPEG4/ISO/AVC
Duration : 2h 23mn
Bit rate : 5 933 Kbps
Width : 1 280 pixels
Height : 720 pixels
Display aspect ratio : 16:9
Frame rate : 23.976 fps
Color space : YUV
Chroma subsampling : 4:2:0
Bit depth : 8 bits
Scan type : Progressive
Bits/(Pixel*Frame) : 0.269
Stream size : 5.93 GiB (65%)
Writing library : x264 core 128 r2M 198a7ea
Encoding settings : cabac=1 / ref=8 / deblock=1:-3:-3 / analyse=0x3:0x113 / me=umh / subme=10 / psy=1 / fade_compensate=0.00 / psy_rd=1.00:0.30 / mixed_ref=1 / me_range=64 / chroma_me=1 / trellis=2 / 8x8dct=1 / cqm=0 / deadzone=6,6 / fast_pskip=0 / chroma_qp_offset=-4 / threads=12 / lookahead_threads=2 / sliced_threads=0 / nr=0 / decimate=0 / interlaced=0 / bluray_compat=0 / constrained_intra=0 / bframes=5 / b_pyramid=2 / b_adapt=2 / b_bias=0 / direct=1 / weightb=1 / open_gop=1 / weightp=2 / keyint=250 / keyint_min=23 / scenecut=40 / intra_refresh=0 / rc_lookahead=230 / rc=crf / mbtree=1 / crf=22.0 / qcomp=0.75 / qpmin=0 / qpmax=69 / qpstep=4 / vbv_maxrate=50000 / vbv_bufsize=50000 / crf_max=0.0 / nal_hrd=none / ip_ratio=1.40 / aq=2:0.75
Language : English
Default : Yes
Forced : No

Audio #1
ID : 2
Format : DTS
Format/Info : Digital Theater Systems
Codec ID : A_DTS
Duration : 2h 23mn
Bit rate mode : Constant
Bit rate : 1 510 Kbps
Channel(s) : 6 channels
Channel positions : Front: L C R, Side: L R, LFE
Sampling rate : 48.0 KHz
Bit depth : 24 bits
Compression mode : Lossy
Stream size : 1.51 GiB (17%)
Language : French
Default : Yes
Forced : No

Audio #2
ID : 3
Format : DTS
Format/Info : Digital Theater Systems
Codec ID : A_DTS
Duration : 2h 23mn
Bit rate mode : Constant
Bit rate : 1 510 Kbps
Channel(s) : 6 channels
Channel positions : Front: L C R, Side: L R, LFE
Sampling rate : 48.0 KHz
Bit depth : 24 bits
Compression mode : Lossy
Stream size : 1.51 GiB (17%)
Language : English
Default : No
Forced : No

Text #1
ID : 4
Format : UTF-8
Codec ID : S_TEXT/UTF8
Codec ID/Info : UTF-8 Plain Text
Language : French
Default : Yes
Forced : Yes

Text #2
ID : 5
Format : UTF-8
Codec ID : S_TEXT/UTF8
Codec ID/Info : UTF-8 Plain Text
Language : French
Default : No
Forced : No

Text #3
ID : 6
Format : PGS
Muxing mode : zlib
Codec ID : S_HDMV/PGS
Codec ID/Info : The same subtitle format used on BDs/HD-DVDs
Language : English
Default : No
Forced : No

Jeux Gratuit
15354131_1854970838071206_1069261547_o.png