Telecharger Bad Times [BLURAY 720p] French

(TRUEFRENCH = Vraie voix française)

BLURAY 720p | MULTiLANGUES (Avec TRUEFRENCH)

Bad Times

Bad Times

Bad Times

Origine du film : Américain
Réalisateur : David Ayer
Acteurs : Christian Bale, Freddy Rodriguez, Eva Longoria
Genre : Policier, Drame, Thriller
Durée : 1h55min
Date de sortie : 10 janvier 2007
Année de production : 2005
Titre Original : Harsh Times
Distribué par : SND
Note presse : Bad Times 3,0/5
Note spectateurs : Bad Times 3/5 (2 148)

Bad Times

Vétéran de la Guerre du Golfe, Jim Davis a été profondément marqué par l’horreur des combats. A bout de ressources, il attend d’être appelé au sein de la police de Los Angeles, où un poste lui avait été promis. Si seulement il avait un boulot, il retrouverait son équilibre et sa vie aurait à nouveau un sens. Jim n’a qu’un seul réconfort au milieu de cette galère : son meilleur copain, Mike, également chômeur. Jim offre à Mike de l’aider à trouver un job, mais leur quête prend rapidement des allures de virée infernale dans les rues chaudes de South Central.Après avoir vu se refermer devant lui les portes du L. A. P. D., Jim accepte de travailler pour les services de la Sécurité du Territoire. Ses virées avec Jim dans les bas quartiers deviennent de plus en plus violentes et dramatiques. Une nouvelle guerre commence… 44997″ style= »display:inline; »>

Bad Times

Qualité : BLURAY 720p
Format : MKV
Sous-titre : Français
Découpé avec : Winrar
Nombre de fichiers : 5 Fichiers
Taille des fichiers : 1000 Mo + 480 Mo

Bad Times

[Liens Interchangeables]

Harsh.Times.2005.720p.BluRay.MULTi.VFF.AC3 x264-BREADLiNE ( 4480 Mo)

Uptobox
Télécharger

Uplea
Télécharger

1fichier
Télécharger

Uploaded
Télécharger

Rapidgator
Télécharger

TurboBit
Télécharger

[ 1 Lien Premium – 4,3 Go ]

Uptobox
Télécharger

Uplea
Télécharger

1fichier
Télécharger

Uploaded
Télécharger

TurboBit
Télécharger

NFO :

Afficher / Masquer le texte 9e5839bba4471e69196741e7405978aa » class= »text_spoiler » style= »display:none; »>■General

Unique ID : 237878188960397436097759418861331387059 (0xB2F5AC379C326AACB7C7158B8BC792B3)

Complete name : Harsh.Times.2005.720p.BluRay.[MULTi].[VFF].[TRUEFRENCH].[VO].[STFR].AC3.x264-BREADLiNE.mkv

Format : Matroska

Format version : Version 4 / Version 2

File size : 4.23 GiB

Duration : 1h 56mn

Overall bit rate : 5 222 Kbps

Movie name : Harsh.Times.2005.720p.BluRay.[MULTi].[VFF].[TRUEFRENCH].[VO].[STFR].AC3.x264-BREADLiNE

Encoded date : UTC 2014-01-26 20:13:33

Writing application : mkvmerge v6.6.0 (‘The Edge Of The In Between’) built on Dec 1 2013 17:55:00

Writing library : libebml v1.3.0 + libmatroska v1.4.1

Video

ID : 1

Format : AVC

Format/Info : Advanced Video Codec

Format profile : [email protected]

Format settings, CABAC : Yes

Format settings, ReFrames : 5 frames

Codec ID : V_MPEG4/ISO/AVC

Duration : 1h 56mn

Bit rate : 4 459 Kbps

Width : 1 280 pixels

Height : 694 pixels

Display aspect ratio : 1.85:1

Original display aspect ratio : 1.85:1

Frame rate mode : Constant

Frame rate : 23.976 fps

Color space : YUV

Chroma subsampling : 4:2:0

Bit depth : 8 bits

Scan type : Progressive

Bits/(Pixel*Frame) : 0.209

Stream size : 3.53 GiB (83%)

Title : 720p BluRay [x264]

Writing library : x264 core 130 r2273 b3065e6

Encoding settings : cabac=1 / ref=5 / deblock=1:0:0 / analyse=0x3:0x133 / me=umh / subme=7 / psy=1 / psy_rd=1.00:0.00 / mixed_ref=1 / me_range=16 / chroma_me=1 / trellis=0 / 8x8dct=1 / cqm=0 / deadzone=21,11 / fast_pskip=0 / chroma_qp_offset=-2 / threads=12 / lookahead_threads=5 / sliced_threads=0 / nr=0 / decimate=1 / interlaced=0 / bluray_compat=0 / constrained_intra=0 / bframes=10 / b_pyramid=2 / b_adapt=2 / b_bias=0 / direct=3 / weightb=1 / open_gop=0 / weightp=2 / keyint=240 / keyint_min=24 / scenecut=40 / intra_refresh=0 / rc_lookahead=50 / rc=2pass / mbtree=1 / bitrate=4459 / ratetol=1.0 / qcomp=0.60 / qpmin=0 / qpmax=69 / qpstep=4 / cplxblur=20.0 / qblur=0.5 / ip_ratio=1.40 / aq=1:1.00

Language : English

Default : Yes

Forced : No

Color primaries : BT.709

Transfer characteristics : BT.709

Matrix coefficients : BT.709

Audio #1

ID : 2

Format : AC-3

Format/Info : Audio Coding 3

Mode extension : CM (complete main)

Format settings, Endianness : Big

Codec ID : A_AC3

Duration : 1h 56mn

Bit rate mode : Constant

Bit rate : 384 Kbps

Channel count : 6 channels

Channel positions : Front: L C R, Side: L R, LFE

Sampling rate : 48.0 KHz

Bit depth : 16 bits

Compression mode : Lossy

Stream size : 319 MiB (7%)

Title : VFF TRUEFRENCH [AC3 5.1]

Language : French

Default : Yes

Forced : No

Audio #2

ID : 3

Format : AC-3

Format/Info : Audio Coding 3

Mode extension : CM (complete main)

Format settings, Endianness : Big

Codec ID : A_AC3

Duration : 1h 56mn

Bit rate mode : Constant

Bit rate : 384 Kbps

Channel count : 6 channels

Channel positions : Front: L C R, Side: L R, LFE

Sampling rate : 48.0 KHz

Bit depth : 16 bits

Compression mode : Lossy

Stream size : 319 MiB (7%)

Title : English [AC3 5.1]

Language : English

Default : No

Forced : No

Text #1

ID : 4

Format : UTF-8

Codec ID : S_TEXT/UTF8

Codec ID/Info : UTF-8 Plain Text

Title : Fr Forced [SRT] [Forced Subtitles]

Language : French

Default : Yes

Forced : No

Text #2

ID : 5

Format : UTF-8

Codec ID : S_TEXT/UTF8

Codec ID/Info : UTF-8 Plain Text

Title : French [SRT] [Full Subtitles]

Language : French

Default : No

Forced : No