Telecharger Bande à part [DVDRiP] French

Qualité BLURAY 1080p | FRENCH | son DTS

Bande à part

Bande à part

Origine du film : Français
Réalisateur : Jean-Luc Godard
Acteurs : Anna Karina, Claude Brasseur, Sami Frey
Genre : Drame
Durée : 1h35min
Année de production : 1964
Note spectateurs : Bande à part

; »>3,7/5 (247)

Bande à part

Les mesaventures tragi-comiques de deux jeunes paumes, Frantz et Arthur, qui avec l’aide d’Odile, jeune fille naive, tentent un coup minable.
105057″ style= »display:inline; »>

Bande à part

Format : MKV
Découpé avec : Winrar

Bande à part

Band.Of.Outsiders.1964.1080p.BluRay.x264-CiNEFiLE

(6712 Mo)

[Liens Interchangeables entre hébergeurs: 6x 1000 Mo + 1x 712 Mo]

Uptobox
Télécharger

Uplea
Télécharger

1fichier
Télécharger

Uploaded
Télécharger

Rapidgator
Télécharger

TurboBit
Télécharger

[ Liens Premium ]

Uptobox
Télécharger

Uplea
Télécharger

1fichier
Télécharger

Uploaded
Télécharger

TurboBit
Télécharger

NFO :

Afficher / Masquer le texte 3659adee5b5894408257ce3f8004d0f4″ class= »text_spoiler » style= »display:none; »>Band.Of.Outsiders.1964.1080p.BluRay.x264-CiNEFiLE.zone-telechargement.com.mkv
Format : Matroska
Format version : Version 2
File size : 6.55 GiB
Duration : 1h 35mn
Overall bit rate : 9 825 Kbps
Encoded date : UTC 2012-11-28 08:52:58
Writing application : mkvmerge v5.8.0 (‘No Sleep / Pillow’) built on Sep 2 2012 15:37:04
Writing library : libebml v1.2.3 + libmatroska v1.3.0

Video
ID : 1
Format : AVC
Format/Info : Advanced Video Codec
Format profile : [email protected]
Format settings, CABAC : Yes
Format settings, ReFrames : 4 frames
Codec ID : V_MPEG4/ISO/AVC
Duration : 1h 35mn
Bit rate : 8 313 Kbps
Width : 1 440 pixels
Height : 1 080 pixels
Display aspect ratio : 4:3
Frame rate mode : Constant
Frame rate : 24.000 fps
Color space : YUV
Chroma subsampling : 4:2:0
Bit depth : 8 bits
Scan type : Progressive
Bits/(Pixel*Frame) : 0.223
Stream size : 5.42 GiB (83%)
Writing library : x264 core 128 r2216 198a7ea
Encoding settings : cabac=1 / ref=4 / deblock=1:0:0 / analyse=0x3:0x113 / me=umh / subme=7 / psy=1 / psy_rd=1.00:0.00 / mixed_ref=1 / me_range=16 / chroma_me=1 / trellis=1 / 8x8dct=1 / cqm=0 / deadzone=21,11 / fast_pskip=0 / chroma_qp_offset=-2 / threads=12 / lookahead_threads=2 / sliced_threads=0 / nr=0 / decimate=1 / interlaced=0 / bluray_compat=0 / constrained_intra=0 / bframes=3 / b_pyramid=2 / b_adapt=1 / b_bias=0 / direct=1 / weightb=1 / open_gop=0 / weightp=2 / keyint=250 / keyint_min=24 / scenecut=40 / intra_refresh=0 / rc_lookahead=40 / rc=2pass / mbtree=1 / bitrate=8313 / ratetol=1.0 / qcomp=0.60 / qpmin=0 / qpmax=69 / qpstep=4 / cplxblur=20.0 / qblur=0.5 / ip_ratio=1.40 / aq=1:1.00
Language : French
Default : Yes
Forced : No

Audio
ID : 2
Format : DTS
Format/Info : Digital Theater Systems
Mode : 16
Format settings, Endianness : Big
Codec ID : A_DTS
Duration : 1h 35mn
Bit rate mode : Constant
Bit rate : 1 509 Kbps
Channel count : 2 channels
Channel positions : Front: L R
Sampling rate : 48.0 KHz
Bit depth : 24 bits
Compression mode : Lossy
Stream size : 1.01 GiB (15%)
Language : French
Default : Yes
Forced : No

Text
ID : 3
Format : UTF-8
Codec ID : S_TEXT/UTF8
Codec ID/Info : UTF-8 Plain Text
Language : English
Default : Yes
Forced : No