Telecharger Bangkok Revenge [BLURAY 720p] French

(TRUEFRENCH = Vraie voix française)

BLURAY 720p | MULTiLANGUES (Avec TRUEFRENCH) | DTS

Bangkok Revenge

Bangkok Revenge

Bangkok Revenge

Origine du film : Américain
Réalisateur : Prachya Pinkaew
Acteurs : Djimon Hounsou, Kevin Bacon, Jirantanin Pitakporntrakul
Genre : Action, Thriller
Année de production : 2011
Titre Original : Elephant White
Note spectateurs : Bangkok Revenge

; »>2,1/5 (46)
Bande annonce :

bc8ff21add9bd691f646ddd696b395c8

19471335″>Cliquez-ici pour voir la bande annonce bc8ff21add9bd691f646ddd696b395c8″> 19471335

bc8ff21add9bd691f646ddd696b395c8

Bangkok Revenge

L'histoire d'un tueur engagé pour venger la mort de la fille d'un businessman.

Nom de la release : Bangkok Revenge 2011 MULTi WiTH TRUEFRENCH 720p Bluray DTS x264-STEAL 26173″ style= »display:inline; »>

Qualité : BLURAY 720p
Format : MKV
Sous-titre : Français
Découpé avec : Winrar
Nombre de fichiers : 5 Fichiers
Taille des fichiers : 1000 Mo 476 Mo
Taille totale : 4476 Mo

[Liens Interchangeables]

1fichier
Télécharger

Uptobox
Télécharger

Free
Télécharger

Uploaded
Télécharger

Rapidgator
Télécharger

TurboBit
Télécharger

[ 1 Lien Premium ]

1fichier
Télécharger

Uptobox
Télécharger

Uploaded
Télécharger

TurboBit
Télécharger

NFO :

Afficher / Masquer le texte 2086c2e05897cff332e1a381baf7748b » class= »text_spoiler » style= »display:none; »>General

Format : Matroska
Format version : Version 4 / Version 2
File size : 4.50 GiB
Duration : 1h 31mn
Overall bit rate : 7 025 Kbps
Movie name : Bangkok Revenge 2011 High [email protected] Resolution 1280p/ 720p Frame rate 23.976 fps Release Blondin000
Encoded date : UTC 2013-05-08 08:32:11
Writing application : mkvmerge v6.0.0 ('Coming Up For Air') built on Jan 20 2013 09:52:00
Writing library : libebml v1.3.0 libmatroska v1.4.0

Video
ID : 1
Format : AVC
Format/Info : Advanced Video Codec
Format profile : [email protected]
Format settings, CABAC : Yes
Format settings, ReFrames : 9 frames
Codec ID : V_MPEG4/ISO/AVC
Duration : 1h 31mn
Bit rate : 4 000 Kbps
Width : 1 280 pixels
Height : 720 pixels
Display aspect ratio : 16:9
Frame rate : 23.976 fps
Color space : YUV
Chroma subsampling : 4:2:0
Bit depth : 8 bits
Scan type : Progressive
Bits/(Pixel*Frame) : 0.181
Stream size : 2.47 GiB (55%)
Title : Bangkok Revenge 2011 High [email protected] Resolution 1280p/ 720p Frame rate 23.976 fps Release Blondin000
Writing library : x264 core 130 r2273 b3065e6
Encoding settings : cabac=1 / ref=9 / deblock=1:-3:-3 / analyse=0x3:0x113 / me=umh / subme=11 / psy=1 / psy_rd=0.96:0.26 / mixed_ref=1 / me_range=128 / chroma_me=1 / trellis=2 / 8x8dct=1 / cqm=0 / deadzone=21,11 / fast_pskip=0 / chroma_qp_offset=-3 / threads=24 / lookahead_threads=2 / sliced_threads=0 / nr=0 / decimate=1 / interlaced=0 / bluray_compat=0 / constrained_intra=0 / bframes=5 / b_pyramid=2 / b_adapt=2 / b_bias=0 / direct=1 / weightb=1 / open_gop=1 / weightp=2 / keyint=240 / keyint_min=23 / scenecut=40 / intra_refresh=0 / rc_lookahead=240 / rc=2pass / mbtree=1 / bitrate=4000 / ratetol=1.0 / qcomp=0.60 / qpmin=0 / qpmax=69 / qpstep=4 / cplxblur=20.0 / qblur=0.5 / vbv_maxrate=50000 / vbv_bufsize=50000 / nal_hrd=none / ip_ratio=1.40 / aq=2:1.00
Language : English
Default : Yes
Forced : No
Color primaries : BT.709-5, BT.1361, IEC 61966-2-4, SMPTE RP177
Transfer characteristics : BT.709-5, BT.1361
Matrix coefficients : BT.709-5, BT.1361, IEC 61966-2-4 709, SMPTE RP177

Audio #1
ID : 2
Format : DTS
Format/Info : Digital Theater Systems
Codec ID : A_DTS
Duration : 1h 31mn
Bit rate mode : Constant
Bit rate : 1 510 Kbps
Channel(s) : 6 channels
Channel positions : Front: L C R, Side: L R, LFE
Sampling rate : 48.0 KHz
Bit depth : 16 bits
Compression mode : Lossy
Stream size : 990 MiB (21%)
Title : VFF DTS 5.1_1510 kbps/ 16-bit 48khz
Language : French
Default : Yes
Forced : No

Audio #2
ID : 3
Format : DTS
Format/Info : Digital Theater Systems
Codec ID : A_DTS
Duration : 1h 31mn
Bit rate mode : Constant
Bit rate : 1 510 Kbps
Channel(s) : 6 channels
Channel positions : Front: L C R, Side: L R, LFE
Sampling rate : 48.0 KHz
Bit depth : 16 bits
Compression mode : Lossy
Stream size : 990 MiB (21%)
Title : VO DTS 5.1_1510 kbps/ 16-bit 48khz
Language : English
Default : No
Forced : No

Text #1
ID : 4
Format : PGS
Muxing mode : zlib
Codec ID : S_HDMV/PGS
Codec ID/Info : The same subtitle format used on BDs/HD-DVDs
Title : FR Complets Original Bluray
Language : French
Default : No
Forced : No

Text #2
ID : 5
Format : PGS
Muxing mode : zlib
Codec ID : S_HDMV/PGS
Codec ID/Info : The same subtitle format used on BDs/HD-DVDs
Title : FR Forcés Original bluray
Language : French
Default : No
Forced : No

Text #3
ID : 6
Format : UTF-8
Codec ID : S_TEXT/UTF8
Codec ID/Info : UTF-8 Plain Text
Title : FR Complets srt
Language : French
Default : No
Forced : No

Text #4
ID : 7
Format : UTF-8
Codec ID : S_TEXT/UTF8
Codec ID/Info : UTF-8 Plain Text
Title : FR Forcés srt
Language : French
Default : Yes
Forced : Yes

Menu
00:00:00.000 : en:00:00:00.000
00:05:46.763 : en:00:05:46.763
00:10:19.536 : en:00:10:19.536
00:15:16.290 : en:00:15:16.290
00:21:25.826 : en:00:21:25.826
00:24:32.388 : en:00:24:32.388
00:29:35.357 : en:00:29:35.357
00:36:00.158 : en:00:36:00.158
00:41:21.521 : en:00:41:21.521
00:47:32.516 : en:00:47:32.516
00:53:47.599 : en:00:53:47.599
00:59:55.467 : en:00:59:55.467
01:07:32.423 : en:01:07:32.423
01:14:43.479 : en:01:14:43.479
01:18:32.833 : en:01:18:32.833
01:25:26.455 : en:01:25:26.455