Telecharger Belle du seigneur [BLURAY 720p] French

(TRUEFRENCH = Vraie voix française)

BLURAY 720p | TRUEFRENCH | DTS

Belle du seigneur

Belle du seigneur

Belle du seigneur

Origine du film : Français, belge, luxembourgeois
Réalisateur : Glenio Bonder
Acteurs : Jonathan Rhys Meyers, Natalia Vodianova, Marianne Faithfull
Genre : Drame, Romance
Durée : 1h44min
Date de sortie : 19 juin 2013
Année de production : 2012
Distribué par : Océan Films
Note presse : Belle du seigneur 1,7/5
Note spectateurs : Belle du seigneur

; »>2,2/5 (155)
Bande annonce :

db8be60b72a9c3f09a89d6a18e8b3acd

19511790″>Cliquez-ici pour voir la bande annonce db8be60b72a9c3f09a89d6a18e8b3acd »> 19511790

db8be60b72a9c3f09a89d6a18e8b3acd

Belle du seigneur

En 1935-1936, à Genève, le séduisant Solal, qui officie à la SDN (Société des Nations), tente d'obtenir les avances de la belle Ariane, aristocrate protestante et épouse de son subalterne Adrien. Celle-ci ne tarde pas à succomber au charme du jeune homme, mais cette relation passionnelle entraînera les deux amants vers une destinée tragique. 40637″ style= »display:inline; »>

Qualité : BLURAY 720p
Langue : Français
Nombre de fichiers : 5 Fichiers
Taille des fichiers : 1000 Mo 470 Mo

Ps: Les liens sont interchangeables, prenez une partie de chaque hébergeur pour télécharger plusieurs fichiers en même temps. smile

Belle.du.Seigneur.2012.LiMiTED.FRENCH.720p.BluRay.x264-ULSHD ( 4470 Mo)

1fichier
Télécharger

Uptobox
Télécharger

Free
Upload en panne.

Uploaded
Télécharger

Rapidgator
Télécharger

TurboBit
Télécharger

1 Lien Premium

1fichier
Télécharger

Uptobox
Télécharger

Uploaded
Télécharger

TurboBit
Télécharger

NFO :

Afficher / Masquer le texte cb1b5af0d6777e6ff5da20f7751136fd » class= »text_spoiler » style= »display:none; »>General
Complete name : ulshd-belleseigneur.720p.mkv
Format : Matroska
Format version : Version 2
File size : 4.37 GiB
Duration : 1h 40mn
Overall bit rate : 6 225 Kbps
Writing application : mkvmerge v4.1.1 ('Bouncin' Back') built on Jul 3 2010 22:54:08
Writing library : libebml v1.0.0 libmatroska v1.0

Video
ID : 1
Format : AVC
Format/Info : Advanced Video Codec
Format profile : [email protected]
Format settings, CABAC : Yes
Format settings, ReFrames : 5 frames
Codec ID : V_MPEG4/ISO/AVC
Duration : 1h 40mn
Bit rate : 4 715 Kbps
Width : 1 280 pixels
Height : 536 pixels
Display aspect ratio : 2.40:1
Frame rate mode : Constant
Frame rate : 25.000 fps
Color space : YUV
Chroma subsampling : 4:2:0
Bit depth : 8 bits
Scan type : Progressive
Bits/(Pixel*Frame) : 0.275
Stream size : 3.22 GiB (74%)
Writing library : x264 core 140 r2377 1ca7bb9
Encoding settings : cabac=1 / ref=5 / deblock=1:0:0 / analyse=0x3:0x113 / me=umh / subme=8 / psy=1 / psy_rd=1.00:0.00 / mixed_ref=1 / me_range=16 / chroma_me=1 / trellis=1 / 8x8dct=1 / cqm=0 / deadzone=21,11 / fast_pskip=1 / chroma_qp_offset=-2 / threads=12 / lookahead_threads=2 / sliced_threads=0 / nr=0 / decimate=1 / interlaced=0 / bluray_compat=0 / constrained_intra=0 / bframes=3 / b_pyramid=2 / b_adapt=2 / b_bias=0 / direct=3 / weightb=1 / open_gop=0 / weightp=2 / keyint=250 / keyint_min=25 / scenecut=40 / intra_refresh=0 / rc_lookahead=50 / rc=2pass / mbtree=1 / bitrate=4715 / ratetol=1.0 / qcomp=0.60 / qpmin=0 / qpmax=69 / qpstep=4 / cplxblur=20.0 / qblur=0.5 / ip_ratio=1.40 / aq=1:1.00
Language : English
Default : Yes
Forced : No

Audio
ID : 2
Format : DTS
Format/Info : Digital Theater Systems
Mode : 16
Format settings, Endianness : Big
Codec ID : A_DTS
Duration : 1h 40mn
Bit rate mode : Constant
Bit rate : 1 509 Kbps
Channel(s) : 6 channels
Channel positions : Front: L C R, Side: L R, LFE
Sampling rate : 48.0 KHz
Bit depth : 24 bits
Compression mode : Lossy
Stream size : 1.06 GiB (24%)
Title : French DTS 1509
Language : French
Default : Yes
Forced : No