Telecharger Bienvenue Mister Chance [DVDRiP] French

Qualité DVDRiP | FRENCH

Bienvenue Mister Chance

Bienvenue Mister Chance

Bienvenue Mister Chance

Origine du film : Américain
Réalisateur : Hal Ashby
Acteurs : Peter Sellers, Shirley MacLaine, Melvyn Douglas
Genre : Comédie dramatique
Durée : 2h10min
Date de sortie : 21 mai 1980
Année de production : 1979
Titre Original : Being There
Distribué par : Madadayo Films
Note presse : Bienvenue Mister Chance 4,0/5
Note spectateurs : Bienvenue Mister Chance

; »>3,6/5 (237)
Bande annonce :

f1bdd6a4b006ea633b848b219e61cf79

19443514″>Cliquez-ici pour voir la bande annonce f1bdd6a4b006ea633b848b219e61cf79″> 19443514

f1bdd6a4b006ea633b848b219e61cf79

Bienvenue Mister Chance

Les aventures d'un jardinier de Washington naïf et simplet prénommé Chance. Mr Chance est tellement naturel que chacune de ses phrases va être prise pour un véritable oracle et qu'il va devenir la coqueluche du pouvoir. 39523″ style= »display:inline; »>

Qualité : DVDRiP
Format : XviD
Langue : Français

Bienvenue Mister Chance FRENCH DVDRip-NOTAG ( 700 Mo)

1fichier
Télécharger

Uptobox
Télécharger

Free
Upload en panne

Uploaded
Télécharger

Rapidgator
Télécharger

TurboBit
Télécharger

NFO :

Afficher / Masquer le texte c07ae6b78bdae0ff37213e51bc5919bb » class= »text_spoiler » style= »display:none; »>■General

Complete name : C:UsersdellDownloadsBienvenue Mister Chance.avi

Format : AVI

Format/Info : Audio Video Interleave

File size : 700 MiB

Duration : 2h 9mn

Overall bit rate : 754 Kbps

Writing application : VirtualDubMod 1.5.1.1a (build 1639/release)

Writing library : VirtualDubMod build 1639/release

Video

ID : 0

Format : MPEG-4 Visual

Format profile : Advanced [email protected]

Format settings, BVOP : No

Format settings, QPel : No

Format settings, GMC : 2 warppoints

Format settings, Matrix : Default (H.263)

Codec ID : XVID

Codec ID/Hint : XviD

Duration : 2h 9mn

Bit rate : 647 Kbps

Width : 576 pixels

Height : 320 pixels

Display aspect ratio : 16:9

Frame rate : 29.970 fps

Color space : YUV

Chroma subsampling : 4:2:0

Bit depth : 8 bits

Scan type : Progressive

Compression mode : Lossy

Bits/(Pixel*Frame) : 0.117

Stream size : 600 MiB (86%)

Writing library : XviD 0.0.09 (UTC 2003-03-25)

Audio

ID : 1

Format : MPEG Audio

Format version : Version 1

Format profile : Layer 3

Mode : Joint stereo

Mode extension : MS Stereo

Codec ID : 55

Codec ID/Hint : MP3

Duration : 2h 9mn

Bit rate mode : Constant

Bit rate : 96.0 Kbps

Channel(s) : 2 channels

Sampling rate : 32.0 KHz

Compression mode : Lossy

Stream size : 89.1 MiB (13%)

Alignment : Aligned on interleaves

Interleave, duration : 36 ms (1.08 video frame)

Interleave, preload duration : 468 ms

Writing library : LAME3.93

Jeux Gratuit
15354131_1854970838071206_1069261547_o.png