Telecharger Big Eyes [BLURAY 720p] French

(TRUEFRENCH = Vraie voix française)

Qualité BLURAY 720p | TRUEFRENCH | son DTS

Big Eyes

Big Eyes

Origine du film : Américain, Canadien
Réalisateur : Tim Burton
Acteurs : Amy Adams, Christoph Waltz, Danny Huston
Genre : Biopic, Comédie, Drame
Durée : 1h47min
Date de sortie : 18 mars 2015
Année de production : 2014
Distribué par : StudioCanal
Note presse : Big Eyes 3,2/5
Note spectateurs : Big Eyes

; »>3,7/5 (2 872)
Bande annonce :

cf4e5f2e140538cd143e64f4a6d8d6b6

19550592″>Cliquez-ici pour voir la bande annonce cf4e5f2e140538cd143e64f4a6d8d6b6″> 19550592

cf4e5f2e140538cd143e64f4a6d8d6b6

Big Eyes

BIG EYES raconte la scandaleuse histoire vraie de l’une des plus grandes impostures de l’histoire de l’art. À la fin des années 50 et au début des années 60, le peintre Walter Keane a connu un succès phénoménal et révolutionné le commerce de l’art grâce à ses énigmatiques tableaux représentant des enfants malheureux aux yeux immenses. La surprenante et choquante vérité a cependant fini par éclater : ces toiles n’avaient pas été peintes par Walter mais par sa femme, Margaret. L’extraordinaire mensonge des Keane a réussi à duper le monde entier. Le film se concentre sur l’éveil artistique de Margaret, le succès phénoménal de ses tableaux et sa relation tumultueuse avec son mari, qui a connu la gloire en s’attribuant tout le mérite de son travail.
91983″ style= »display:inline; »>

Big Eyes

Format : MKV
Découpé avec : Winrar
Sous-titres : Forcé pour les passages en langue étrangère.

Big Eyes

Big.Eyes.2014.TRUEFRENCH.720p.BluRay.x264-Goatlove

(4470 Mo)

[Liens Interchangeables entre hébergeurs: 4x 1000 Mo + 1x 470 Mo]

Uptobox
Télécharger

Uplea
Télécharger

1fichier
Télécharger

Uploaded
Télécharger

Rapidgator
Télécharger

TurboBit
Télécharger

[Liens PREMIUM]

Uptobox
Télécharger

Uplea
Télécharger

1fichier
Télécharger

Uploaded
Télécharger

Rapidgator
Télécharger

TurboBit
Télécharger

NFO :

Afficher / Masquer le texte 3c4ea0b2a4821567517d7a3707ea0d02″ class= »text_spoiler » style= »display:none; »>General
Format : Matroska
Format version : Version 2
File size : 4.37 GiB
Duration : 1h 46mn
Overall bit rate : 5 895 Kbps
Writing application : mkvmerge v6.6.0 (‘The Edge Of The In Between’) built on Dec 1 2013 17:55:00
Writing library : libebml v1.3.0 + libmatroska v1.4.1

Video
ID : 1
Format : AVC
Format/Info : Advanced Video Codec
Format profile : [email protected]
Format settings, CABAC : Yes
Format settings, ReFrames : 5 frames
Codec ID : V_MPEG4/ISO/AVC
Duration : 1h 46mn
Bit rate : 4 385 Kbps
Width : 1 280 pixels
Height : 696 pixels
Display aspect ratio : 1.85:1
Frame rate mode : Constant
Frame rate : 24.000 fps
Color space : YUV
Chroma subsampling : 4:2:0
Bit depth : 8 bits
Scan type : Progressive
Bits/(Pixel*Frame) : 0.205
Stream size : 3.16 GiB (72%)
Writing library : x264 core 146 r2538 121396c
Encoding settings : cabac=1 / ref=5 / deblock=1:0:0 / analyse=0x3:0x133 / me=umh / subme=8 / psy=1 / psy_rd=1.00:0.00 / mixed_ref=1 / me_range=16 / chroma_me=1 / trellis=1 / 8x8dct=1 / cqm=0 / deadzone=21,11 / fast_pskip=0 / chroma_qp_offset=-2 / threads=12 / lookahead_threads=2 / sliced_threads=0 / nr=0 / decimate=1 / interlaced=0 / bluray_compat=0 / constrained_intra=0 / bframes=3 / b_pyramid=2 / b_adapt=2 / b_bias=0 / direct=3 / weightb=1 / open_gop=0 / weightp=2 / keyint=250 / keyint_min=24 / scenecut=40 / intra_refresh=0 / rc_lookahead=50 / rc=2pass / mbtree=1 / bitrate=4385 / ratetol=1.0 / qcomp=0.60 / qpmin=0 / qpmax=69 / qpstep=4 / cplxblur=20.0 / qblur=0.5 / ip_ratio=1.40 / aq=1:1.00
Language : English
Default : Yes
Forced : No

Audio
ID : 2
Format : DTS
Format/Info : Digital Theater Systems
Mode : 16
Format settings, Endianness : Big
Codec ID : A_DTS
Duration : 1h 46mn
Bit rate mode : Constant
Bit rate : 1 509 Kbps
Channel(s) : 6 channels
Channel positions : Front: L C R, Side: L R, LFE
Sampling rate : 48.0 KHz
Bit depth : 24 bits
Compression mode : Lossy
Stream size : 1.12 GiB (26%)
Title : French
Language : French
Default : Yes
Forced : No

Text
ID : 3
Format : UTF-8
Codec ID : S_TEXT/UTF8
Codec ID/Info : UTF-8 Plain Text
Title : French Forced
Language : frf
Default : Yes
Forced : Yes

Menu
00:00:00.000 : en:00:00:00.000
00:10:08.667 : en:00:10:08.667
00:18:34.292 : en:00:18:34.292
00:27:01.958 : en:00:27:01.958
00:34:42.042 : en:00:34:42.042
00:45:46.083 : en:00:45:46.083
00:55:24.333 : en:00:55:24.333
01:04:05.042 : en:01:04:05.042
01:10:07.375 : en:01:10:07.375
01:19:58.000 : en:01:19:58.000
01:27:12.167 : en:01:27:12.167
01:38:42.375 : en:01:38:42.375

Jeux Gratuit
15354131_1854970838071206_1069261547_o.png