Telecharger Bis [BLURAY 720p] French

Qualité BLURAY 720p | FRENCH | son DTS

Bis

Bis

Origine du film : Français
Réalisateur : Dominique Farrugia
Acteurs : Franck Dubosc, Kad Merad, Alexandra Lamy
Genre : Comédie
Durée : 1h38min
Date de sortie : 18 février 2015
Année de production : 2014
Distribué par : EuropaCorp Distribution
Note presse : Bis 3,2/5
Note spectateurs : Bis 3/5 (1 682)
Bande annonce :

6f91651c3d7d5f7ddbac7305a42d39e6

19550698″>Cliquez-ici pour voir la bande annonce 6f91651c3d7d5f7ddbac7305a42d39e6″> 19550698

6f91651c3d7d5f7ddbac7305a42d39e6

Bis

Éric et Patrice sont amis depuis le lycée. Au fil des années, chacun a pris un chemin très différent : d’un côté Éric, hédoniste sans attaches aux multiples conquêtes, et de l’autre Patrice, père de famille « monogame » à la vie bien rangée. Après une soirée bien arrosée, les deux amis d’enfance se retrouvent propulsés en 1986 alors qu’ils n’ont que 17 ans. Ce retour dans le passé est l’occasion rêvée pour tenter de changer le cours de leur vie. Que vont-ils faire de cette seconde chance ?
88347″ style= »display:inline; »>

Bis

Format : MKV

Bis

Bis.2015.FRENCH.720p.BluRay.x264-LOST

(4479 Mo)

[Liens Interchangeables entre hébergeurs: 4x 1000 Mo + 1x 479 Mo]

Uptobox
Télécharger

Uplea
Télécharger

1fichier
Télécharger

Uploaded
Télécharger

Rapidgator
Télécharger

TurboBit
Télécharger

1 Lien Premium – 4.4 Go

Uptobox Premium
Télécharger

Uplea Premium
Télécharger

1fichier Premium
Télécharger

Uploaded Premium
Télécharger

TurboBit Premium
Télécharger

NFO :

Afficher / Masquer le texte 10cc5c1237a61728a8d70e3754ca655a » class= »text_spoiler » style= »display:none; »>General
Complete name : bis.2015.french.720p.bluray.x264-lost.mkv
Format : Matroska
Format version : Version 2
File size : 4.37 GiB
Duration : 1h 41mn
Overall bit rate : 6 145 Kbps
Writing application : mkvmerge v6.6.0 (‘The Edge Of The In Between’) built on Dec 1 2013 17:55:00
Writing library : libebml v1.3.0 + libmatroska v1.4.1

Video
ID : 1
Format : AVC
Format/Info : Advanced Video Codec
Format profile : [email protected]
Format settings, CABAC : Yes
Format settings, ReFrames : 5 frames
Codec ID : V_MPEG4/ISO/AVC
Duration : 1h 41mn
Bit rate : 4 635 Kbps
Width : 1 280 pixels
Height : 536 pixels
Display aspect ratio : 2.40:1
Frame rate mode : Constant
Frame rate : 24.000 fps
Color space : YUV
Chroma subsampling : 4:2:0
Bit depth : 8 bits
Scan type : Progressive
Bits/(Pixel*Frame) : 0.281
Stream size : 3.21 GiB (73%)
Writing library : x264 core 146 r2538 121396c
Encoding settings : cabac=1 / ref=5 / deblock=1:0:0 / analyse=0x3:0x113 / me=umh / subme=8 / psy=1 / psy_rd=1.00:0.00 / mixed_ref=1 / me_range=16 / chroma_me=1 / trellis=1 / 8x8dct=1 / cqm=0 / deadzone=21,11 / fast_pskip=1 / chroma_qp_offset=-2 / threads=18 / lookahead_threads=3 / sliced_threads=0 / nr=0 / decimate=1 / interlaced=0 / bluray_compat=0 / constrained_intra=0 / bframes=3 / b_pyramid=2 / b_adapt=2 / b_bias=0 / direct=3 / weightb=1 / open_gop=0 / weightp=2 / keyint=240 / keyint_min=24 / scenecut=40 / intra_refresh=0 / rc_lookahead=50 / rc=2pass / mbtree=1 / bitrate=4635 / ratetol=1.0 / qcomp=0.60 / qpmin=0 / qpmax=69 / qpstep=4 / cplxblur=20.0 / qblur=0.5 / ip_ratio=1.40 / aq=1:1.00
Language : English
Default : Yes
Forced : No

Audio
ID : 2
Format : DTS
Format/Info : Digital Theater Systems
Mode : 16
Format settings, Endianness : Big
Codec ID : A_DTS
Duration : 1h 41mn
Bit rate mode : Constant
Bit rate : 1 509 Kbps
Channel(s) : 6 channels
Channel positions : Front: L C R, Side: L R, LFE
Sampling rate : 48.0 KHz
Bit depth : 24 bits
Compression mode : Lossy
Stream size : 1.07 GiB (25%)
Title : French DTS 1509Kbps
Language : French
Default : Yes
Forced : No

Menu
00:00:00.000 : en:00:00:00.000
00:08:49.667 : en:00:08:49.667
00:16:42.917 : en:00:16:42.917
00:26:28.000 : en:00:26:28.000
00:34:40.417 : en:00:34:40.417
00:42:22.792 : en:00:42:22.792
00:51:02.500 : en:00:51:02.500
00:59:41.458 : en:00:59:41.458
01:07:58.250 : en:01:07:58.250
01:17:26.083 : en:01:17:26.083
01:25:03.042 : en:01:25:03.042
01:33:41.583 : en:01:33:41.583