Telecharger Blackout Total [BLURAY 720p] French

BLURAY 720p | FRENCH

Blackout Total

Blackout Total

Blackout Total

Origine du film : Américain
Réalisateur : Steven Brill
Acteurs : Elizabeth Banks, James Marsden, Gillian Jacobs
Genre : Comédie
Durée : 1h35min
Date de sortie : 21 mai 2014
Année de production : 2014
Titre Original : Walk Of Shame
Distribué par : Metropolitan FilmExport
Note presse : Blackout Total 2,3/5
Note spectateurs : Blackout Total

; »>2,5/5 (759)
Bande annonce :

25e3c5981a743033a490fd90aa3be44a

19544670″>Cliquez-ici pour voir la bande annonce 25e3c5981a743033a490fd90aa3be44a »> 19544670

25e3c5981a743033a490fd90aa3be44a

Blackout Total

Meghan, présentatrice télé d'une trentaine d'années, a passé une sale journée. Non seulement elle vient de se faire larguer par son fiancé, mais elle n'a pas obtenu la promotion qu'elle convoitait… Pour lui remonter le moral, ses copines l'emmènent faire la fête toute la nuit. Mais le lendemain matin, elle se réveille dans le lit d'un parfait inconnu, sans argent, ni téléphone portable. Alors qu'elle parvient tout de même à consulter sa messagerie vocale, elle apprend qu'elle est de nouveau en lice pour décrocher le boulot de ses rêves. Arrivera-t-elle à temps à la chaîne de télé pour passer une audition ? Rien n'est moins sûr…
59673″ style= »display:inline; »>

Blackout Total

Qualité : BLURAY 720p
Format : MKV
Langue : Français
Découpé avec : Winrar
Nombre de fichiers : 4 Fichiers
Taille des fichiers : 1000 Mo + 742 Mo

Blackout Total

[4 Liens Interchangeables : 3 x 1000 Mo + 1 x 742 Mo]

Walk.of.Shame.2014.LIMITED.FRENCH.720p.BluRay.x264-OXyGeN ( 3472 Mo)

Uptobox
Télécharger

Uplea
Télécharger

1fichier
Télécharger

Uploaded
Télécharger

Rapidgator
Télécharger

TurboBit
Télécharger

[1 Lien PREMIUM : 1 x 3.65 GB]

Uptobox
Télécharger

Uplea
Télécharger

1fichier
Télécharger

Uploaded
Télécharger

Rapidgator
Télécharger

TurboBit
Télécharger

NFO :

Afficher / Masquer le texte 1209e3b761faa40bc38d82b143a89e5f » class= »text_spoiler » style= »display:none; »>General
Format : Matroska
Format version : Version 2
File size : 3.65 GiB
Duration : 1h 30mn
Overall bit rate : 5 769 Kbps
Movie name : Walk.of.Shame.2014.LIMITED.FRENCH.720p.BluRay.x264-OXyGeN
Encoded date : UTC 2014-09-27 01:00:20
Writing application : mkvmerge v5.1.0 (‘And so it goes’) built on Feb 1 2012 11:32:58
Writing library : libebml v1.2.2 + libmatroska v1.3.0

Video
ID : 1
Format : AVC
Format/Info : Advanced Video Codec
Format profile : [email protected]
Format settings, CABAC : Yes
Format settings, ReFrames : 5 frames
Muxing mode : Header stripping
Codec ID : V_MPEG4/ISO/AVC
Duration : 1h 30mn
Bit rate : 5 109 Kbps
Width : 1 280 pixels
Height : 536 pixels
Display aspect ratio : 2.40:1
Frame rate mode : Constant
Frame rate : 25.000 fps
Original frame rate : 23.976 fps
Color space : YUV
Chroma subsampling : 4:2:0
Bit depth : 8 bits
Scan type : Progressive
Bits/(Pixel*Frame) : 0.298
Stream size : 3.30 GiB (90%)
Title : AVC 720p Source GECKOS
Writing library : x264 core 142 r2431 ac76440
Encoding settings : cabac=1 / ref=5 / deblock=1:0:0 / analyse=0x3:0x133 / me=umh / subme=7 / psy=1 / psy_rd=1.00:0.00 / mixed_ref=1 / me_range=16 / chroma_me=1 / trellis=1 / 8x8dct=1 / cqm=0 / deadzone=21,11 / fast_pskip=0 / chroma_qp_offset=-2 / threads=12 / lookahead_threads=2 / sliced_threads=0 / nr=0 / decimate=1 / interlaced=0 / bluray_compat=0 / constrained_intra=0 / bframes=3 / b_pyramid=2 / b_adapt=1 / b_bias=0 / direct=1 / weightb=1 / open_gop=0 / weightp=2 / keyint=250 / keyint_min=23 / scenecut=40 / intra_refresh=0 / rc_lookahead=40 / rc=2pass / mbtree=1 / bitrate=5109 / ratetol=1.0 / qcomp=0.60 / qpmin=0 / qpmax=69 / qpstep=4 / cplxblur=20.0 / qblur=0.5 / ip_ratio=1.40 / aq=1:1.00
Language : English
Default : Yes
Forced : No

Audio
ID : 2
Format : AC-3
Format/Info : Audio Coding 3
Mode extension : CM (complete main)
Format settings, Endianness : Big
Muxing mode : Header stripping
Codec ID : A_AC3
Duration : 1h 30mn
Bit rate mode : Constant
Bit rate : 448 Kbps
Channel(s) : 6 channels
Channel positions : Front: L C R, Side: L R, LFE
Sampling rate : 48.0 KHz
Bit depth : 16 bits
Compression mode : Lossy
Stream size : 291 MiB (8%)
Title : AC3 5.1 448 Kbps Source DESTROY
Language : French
Default : Yes
Forced : No

Menu
00:00:00.000 : en:00:00:00.000
00:02:27.689 : en:00:02:27.689
00:07:23.735 : en:00:07:23.735
00:12:20.531 : en:00:12:20.531
00:17:16.702 : en:00:17:16.702
00:22:08.118 : en:00:22:08.118
00:26:53.737 : en:00:26:53.737
00:32:04.464 : en:00:32:04.464
00:39:18.898 : en:00:39:18.898
00:46:26.409 : en:00:46:26.409
00:51:02.977 : en:00:51:02.977
00:54:24.678 : en:00:54:24.678
00:59:49.211 : en:00:59:49.211
01:05:01.523 : en:01:05:01.523
01:07:40.223 : en:01:07:40.223
01:11:44.634 : en:01:11:44.634
01:15:06.252 : en:01:15:06.252
01:22:58.473 : en:01:22:58.473
01:27:27.701 : en:01:27:27.701
01:29:34.703 : en:01:29:34.703

Jeux Gratuit
15354131_1854970838071206_1069261547_o.png