Telecharger Blade Runner [DVDRiP] French

Qualité BDRiP mkv | MULTiLANGUES

Blade Runner

Blade Runner

Origine du film : Américain
Réalisateur : Ridley Scott
Acteurs : Harrison Ford, Rutger Hauer, Sean Young
Genre : Science fiction
Durée : 1h57min
Date de sortie : 15 septembre 1982
Année de production : 1982
Distribué par : Warner Bros. France
Note presse : Blade Runner 3,8/5
Note spectateurs : Blade Runner

; »>4,1/5 (18 149)
Bande annonce :

8ddca60c2230dacfb6b18525158ee515

19557571″>Cliquez-ici pour voir la bande annonce 8ddca60c2230dacfb6b18525158ee515″> 19557571

8ddca60c2230dacfb6b18525158ee515

Blade Runner

Dans les dernières années du 20ème siècle, des milliers d’hommes et de femmes partent à la conquête de l’espace, fuyant les mégalopoles devenues insalubres. Sur les colonies, une nouvelle race d’esclaves voit le jour : les répliquants, des androïdes que rien ne peut distinguer de l’être humain. Los Angeles, 2019. Après avoir massacré un équipage et pris le contrôle d’un vaisseau, les répliquants de type Nexus 6, le modèle le plus perfectionné, sont désormais déclarés « hors la loi ». Quatre d’entre eux parviennent cependant à s’échapper et à s’introduire dans Los Angeles. Un agent d’une unité spéciale, un blade-runner, est chargé de les éliminer. Selon la terminologie officielle, on ne parle pas d’exécution, mais de retrait…
105268″ style= »display:inline; »>

Blade Runner

Format : MKV

Blade Runner

Blade Runner 1982 Final.Cut.MULTI.BRRip.x264.AC3-HuSh

(1490 Mo)

Uptobox
Télécharger

Uploaded
Télécharger

TurboBit
Télécharger

Rapidgator
Télécharger

Uplea
Télécharger

1fichier
Télécharger

NFO :

Afficher / Masquer le texte 9180a2510b30af06f5e8383e3010eec1″ class= »text_spoiler » style= »display:none; »>■General

Unique ID : 175991678297854526501061543472458627569 (0x8466C3AA745EB1B4B9A6E9080F97F9F1)

Complete name : H:Blade.Runner.1982.Final.Cut.MULTI.BRRip.x264.AC3-HuShBlade.Runner.1982.Final.Cut.MULTI.BRRip.x264.AC3-HuSh.mkv

Format : Matroska

Format version : Version 4 / Version 2

File size : 1.49 GiB

Duration : 1h 57mn

Overall bit rate mode : Variable

Overall bit rate : 1 808 Kbps

Movie name : Blade.Runner.1982.Final.Cut.MULTI.BRRip.x264.AC3-HuSh

Encoded date : UTC 2014-01-01 04:55:03

Writing application : mkvmerge v6.3.0 (‘You can’t stop me!’) built on Jun 28 2013 20:09:41

Writing library : libebml v1.3.0 + libmatroska v1.4.0

Video

ID : 1

Format : AVC

Format/Info : Advanced Video Codec

Format profile : [email protected]

Format settings, CABAC : Yes

Format settings, ReFrames : 8 frames

Codec ID : V_MPEG4/ISO/AVC

Duration : 1h 57mn

Bit rate mode : Variable

Bit rate : 911 Kbps

Maximum bit rate : 17.5 Mbps

Width : 688 pixels

Height : 288 pixels

Display aspect ratio : 2.40:1

Frame rate mode : Constant

Frame rate : 23.976 fps

Color space : YUV

Chroma subsampling : 4:2:0

Bit depth : 8 bits

Scan type : Progressive

Bits/(Pixel*Frame) : 0.192

Stream size : 737 MiB (48%)

Title : Video

Writing library : x264 core 135 r2345

Encoding settings : cabac=1 / ref=8 / deblock=1:-1:-1 / analyse=0x3:0x133 / me=umh / subme=9 / psy=1 / psy_rd=1.00:0.00 / mixed_ref=1 / me_range=32 / chroma_me=1 / trellis=2 / 8x8dct=1 / cqm=0 / deadzone=21,11 / fast_pskip=0 / chroma_qp_offset=-2 / threads=6 / lookahead_threads=1 / sliced_threads=0 / nr=0 / decimate=1 / interlaced=0 / bluray_compat=0 / constrained_intra=0 / bframes=6 / b_pyramid=2 / b_adapt=2 / b_bias=0 / direct=3 / weightb=1 / open_gop=0 / weightp=2 / keyint=230 / keyint_min=23 / scenecut=40 / intra_refresh=0 / rc_lookahead=60 / rc=2pass / mbtree=1 / bitrate=911 / ratetol=1.0 / qcomp=0.60 / qpmin=10 / qpmax=69 / qpstep=4 / cplxblur=20.0 / qblur=0.5 / vbv_maxrate=17500 / vbv_bufsize=17500 / nal_hrd=vbr / ip_ratio=1.40 / aq=1:1.00

Default : Yes

Forced : No

Audio #1

ID : 2

Format : AC-3

Format/Info : Audio Coding 3

Mode extension : CM (complete main)

Format settings, Endianness : Big

Codec ID : A_AC3

Duration : 1h 57mn

Bit rate mode : Constant

Bit rate : 448 Kbps

Channel(s) : 6 channels

Channel positions : Front: L C R, Side: L R, LFE

Sampling rate : 48.0 KHz

Compression mode : Lossy

Stream size : 377 MiB (25%)

Title : Franτais (5.1 AC3 @ 448 Kbps)

Language : French

Default : Yes

Forced : No

Audio #2

ID : 3

Format : AC-3

Format/Info : Audio Coding 3

Mode extension : CM (complete main)

Format settings, Endianness : Big

Codec ID : A_AC3

Duration : 1h 57mn

Bit rate mode : Constant

Bit rate : 448 Kbps

Channel(s) : 6 channels

Channel positions : Front: L C R, Side: L R, LFE

Sampling rate : 48.0 KHz

Compression mode : Lossy

Stream size : 377 MiB (25%)

Title : Anglais (5.1 AC3 @ 448 Kbps)

Language : English

Default : No

Forced : No

Text #1

ID : 4

Format : UTF-8

Codec ID : S_TEXT/UTF8

Codec ID/Info : UTF-8 Plain Text

Title : Franτais

Language : French

Default : No

Forced : No

Text #2

ID : 5

Format : UTF-8

Codec ID : S_TEXT/UTF8

Codec ID/Info : UTF-8 Plain Text

Title : Franτais forcés

Language : French

Default : Yes

Forced : Yes