Telecharger Blade – Trilogie [BLURAY 720p] French

(TRUEFRENCH = Vraie voix française)

BLURAY 720p | TRUEFRENCH | DTS

Blade - Trilogie

Blade - Trilogie

Blade - Trilogie

Origine du film : Américain
Réalisateur : Stephen Norrington (1), Guillermo del Toro (2), David S. Goyer (3)
Acteurs : Wesley Snipes, Stephen Dorff, Kris Kristofferson (1),
Wesley Snipes, Kris Kristofferson, Ron Perlman (2),
Wesley Snipes, Kris Kristofferson, Ryan Reynolds (3)
Genre : Fantastique, Action
Durée : 1h 55min (1), 1h 55min (2), 1h 46min (3)
Date de sortie : 18 novembre 1998 (1), 19 juin 2002 (2), 8 décembre 2004 (3)
Année de production : 1998 (1), 2002 (2), 2004 (3)
Note spectateurs : Blade - Trilogie 3,1/5 (8 581) [1], Blade - Trilogie 2,8/5 (6 883) [2], Blade - Trilogie 2,2/5 (5 409) [3]

Blade - Trilogie

Mi-homme mi-vampire, possédant toutes les qualités des goules et aucune de leur faiblesse, capable de vivre en plein jour, Blade traque sans pitié les suceurs de sang. Aidé de Whistler, son mentor et armurier, il est le cauchemar de la Nation Secrète des Vampires, dont les membres infiltrent toutes les couches de la société. L’un d’eux, Deacon Frost, avide de pouvoir, souhaite asservir le monde et la race humaine en invoquant le Dieu du sang. Un seul homme peut se mettre en travers de son chemin : Blade…

Nom de la release : Blade.Trilogie.TRUEFRENCH.BluRay.720p.x264-MAGiCAL&AiRLiNE 26978″ style= »display:inline; »>

Qualité : BLURAY 720p
Format : MKV
Langue : Français
Sous-titre : Français
Découpé avec : Winrar
Taille totale : 3 * 5.45 GB

Blade.1998.FRENCH.720p.BluRay.DTS.x264-MAGiCAL

[6 Liens Interchangeables : 5 x 1000 Mo 1 x 590 Mo]

1fichier
Télécharger

Uptobox
Télécharger

Free
Problème d'upload

Uploaded
Télécharger

Rapidgator
Télécharger

TurboBit
Télécharger

[2 liens PREMIUM : 1 x 3 GB 1 x 2.45 GB]

Uploaded
Partie 1
Partie 2

[1 lien PREMIUM : 1 x 5.45 GB]

1fichier
Télécharger

Uptobox
Télécharger

TurboBit
Télécharger

NFO :

Afficher / Masquer le texte 561c13222549ad08bb06808c3dee845d » class= »text_spoiler » style= »display:none; »>General
Complete name : mgl-bladei720p-www.Zone-Telechargement.com.mkv
Format : Matroska
Format version : Version 2
File size : 5.46 GiB
Duration : 2h 0mn
Overall bit rate : 6 499 Kbps
Encoded date : UTC 2012-09-15 06:54:09
Writing application : mkvmerge v5.4.0 ('Piper') built on Mar 10 2012 13:34:39
Writing library : libebml v1.2.3 libmatroska v1.3.0

Video
ID : 1
Format : AVC
Format/Info : Advanced Video Codec
Format profile : [email protected]
Format settings, CABAC : Yes
Format settings, ReFrames : 5 frames
Muxing mode : Header stripping
Codec ID : V_MPEG4/ISO/AVC
Duration : 2h 0mn
Bit rate : 4 994 Kbps
Width : 1 280 pixels
Height : 536 pixels
Display aspect ratio : 2.40:1
Frame rate mode : Constant
Frame rate : 23.976 fps
Color space : YUV
Chroma subsampling : 4:2:0
Bit depth : 8 bits
Scan type : Progressive
Bits/(Pixel*Frame) : 0.304
Stream size : 4.08 GiB (75%)
Writing library : x264 core 125 r2208 d9d2288
Encoding settings : cabac=1 / ref=5 / deblock=1:0:0 / analyse=0x3:0x133 / me=umh / subme=8 / psy=1 / psy_rd=1.00:0.00 / mixed_ref=1 / me_range=16 / chroma_me=1 / trellis=1 / 8x8dct=1 / cqm=0 / deadzone=21,11 / fast_pskip=1 / chroma_qp_offset=-2 / threads=8 / lookahead_threads=1 / sliced_threads=0 / nr=0 / decimate=1 / interlaced=0 / bluray_compat=0 / constrained_intra=0 / bframes=3 / b_pyramid=2 / b_adapt=1 / b_bias=0 / direct=1 / weightb=1 / open_gop=0 / weightp=2 / keyint=250 / keyint_min=23 / scenecut=40 / intra_refresh=0 / rc=2pass / mbtree=0 / bitrate=4994 / ratetol=1.0 / qcomp=0.60 / qpmin=0 / qpmax=69 / qpstep=4 / cplxblur=20.0 / qblur=0.5 / ip_ratio=1.40 / pb_ratio=1.30 / aq=1:1.00
Language : English
Default : Yes
Forced : No

Audio
ID : 2
Format : DTS
Format/Info : Digital Theater Systems
Mode : 16
Format settings, Endianness : Big
Muxing mode : Header stripping
Codec ID : A_DTS
Duration : 2h 0mn
Bit rate mode : Constant
Bit rate : 1 509 Kbps
Channel(s) : 6 channels
Channel positions : Front: L C R, Side: L R, LFE
Sampling rate : 48.0 KHz
Bit depth : 24 bits
Compression mode : Lossy
Stream size : 1.27 GiB (23%)
Title : FR DTS
Language : French
Default : Yes
Forced : No

Text
ID : 3
Format : UTF-8
Codec ID : S_TEXT/UTF8
Codec ID/Info : UTF-8 Plain Text
Title : FR FORCED
Language : French
Default : Yes
Forced : No

Blade.II.2002.FRENCH.720p.BluRay.x264-MAGiCAL

[6 Liens Interchangeables : 5 x 1000 Mo 1 x 574 Mo]

1fichier
Télécharger

Uptobox
Télécharger

Free
Problème d'upload

Uploaded
Télécharger

Rapidgator
Télécharger

TurboBit
Télécharger

[2 liens PREMIUM : 1 x 3 GB 1 x 2.44 GB]

Uploaded
Partie 1
Partie 2

[1 lien PREMIUM : 1 x 5.45 GB]

1fichier
Télécharger

Uptobox
Télécharger

TurboBit
Télécharger

NFO :

Afficher / Masquer le texte 5edcf30fa5b29ede32d27dec0daf0734″ class= »text_spoiler » style= »display:none; »>General
Complete name : mgl-bladeii720p-www.Zone-Telechargement.com.mkv
Format : Matroska
Format version : Version 2
File size : 5.44 GiB
Duration : 1h 56mn
Overall bit rate : 6 669 Kbps
Encoded date : UTC 2012-09-21 05:48:20
Writing application : mkvmerge v5.8.0 ('No Sleep / Pillow') built on Sep 2 2012 15:37:04
Writing library : libebml v1.2.3 libmatroska v1.3.0

Video
ID : 1
Format : AVC
Format/Info : Advanced Video Codec
Format profile : [email protected]
Format settings, CABAC : Yes
Format settings, ReFrames : 5 frames
Muxing mode : Header stripping
Codec ID : V_MPEG4/ISO/AVC
Duration : 1h 56mn
Bit rate : 5 164 Kbps
Width : 1 280 pixels
Height : 720 pixels
Display aspect ratio : 16:9
Frame rate mode : Constant
Frame rate : 23.976 fps
Color space : YUV
Chroma subsampling : 4:2:0
Bit depth : 8 bits
Scan type : Progressive
Bits/(Pixel*Frame) : 0.234
Stream size : 4.10 GiB (75%)
Writing library : x264 core 128 r2216 198a7ea
Encoding settings : cabac=1 / ref=5 / deblock=1:0:0 / analyse=0x3:0x133 / me=umh / subme=8 / psy=1 / psy_rd=1.00:0.00 / mixed_ref=1 / me_range=16 / chroma_me=1 / trellis=1 / 8x8dct=1 / cqm=0 / deadzone=21,11 / fast_pskip=1 / chroma_qp_offset=-2 / threads=8 / lookahead_threads=1 / sliced_threads=0 / nr=0 / decimate=1 / interlaced=0 / bluray_compat=0 / constrained_intra=0 / bframes=3 / b_pyramid=2 / b_adapt=1 / b_bias=0 / direct=1 / weightb=1 / open_gop=0 / weightp=2 / keyint=250 / keyint_min=23 / scenecut=40 / intra_refresh=0 / rc=2pass / mbtree=0 / bitrate=5164 / ratetol=1.0 / qcomp=0.60 / qpmin=0 / qpmax=69 / qpstep=4 / cplxblur=20.0 / qblur=0.5 / ip_ratio=1.40 / pb_ratio=1.30 / aq=1:1.00
Language : English
Default : Yes
Forced : No

Audio
ID : 2
Format : DTS
Format/Info : Digital Theater Systems
Mode : 16
Format settings, Endianness : Big
Muxing mode : Header stripping
Codec ID : A_DTS
Duration : 1h 56mn
Bit rate mode : Constant
Bit rate : 1 509 Kbps
Channel(s) : 6 channels
Channel positions : Front: L C R, Side: L R, LFE
Sampling rate : 48.0 KHz
Bit depth : 16 bits
Compression mode : Lossy
Stream size : 1.23 GiB (23%)
Title : FR DTS
Language : French
Default : Yes
Forced : No

Text
ID : 3
Format : UTF-8
Codec ID : S_TEXT/UTF8
Codec ID/Info : UTF-8 Plain Text
Title : FR FORCED
Language : French
Default : Yes
Forced : No

Blade.Trinity.2004.FRENCH.720p.BluRay.x264.DTS-AiRLiNE

[6 Liens Interchangeables : 5 x 1000 Mo 1 x 574 Mo]

1fichier
Télécharger

Uptobox
Télécharger

Free
Problème d'upload

Uploaded
Télécharger

Rapidgator
Télécharger

TurboBit
Télécharger

[2 liens PREMIUM : 1 x 3 GB 1 x 2.46 GB]

Uploaded
Partie 1
Partie 2

[1 lien PREMIUM : 1 x 5.46 GB]

1fichier
Télécharger

Uptobox
Télécharger

TurboBit
Télécharger

NFO :

Afficher / Masquer le texte 0ea38a25c95fd755c5c32da641f94e6d » class= »text_spoiler » style= »display:none; »>General
Complete name : airline-blade.trinity720p-www.Zone-Telechargement.com.mkv
Format : Matroska
Format version : Version 2
File size : 5.46 GiB
Duration : 2h 2mn
Overall bit rate : 6 392 Kbps
Encoded date : UTC 2012-10-07 12:24:00
Writing application : mkvmerge v5.7.0 ('The Whirlwind') built on Jul 8 2012 20:08:51
Writing library : libebml v1.2.3 libmatroska v1.3.0

Video
ID : 1
Format : AVC
Format/Info : Advanced Video Codec
Format profile : [email protected]
Format settings, CABAC : Yes
Format settings, ReFrames : 5 frames
Muxing mode : Header stripping
Codec ID : V_MPEG4/ISO/AVC
Duration : 2h 2mn
Bit rate : 4 885 Kbps
Width : 1 280 pixels
Height : 544 pixels
Display aspect ratio : 2.35:1
Frame rate mode : Constant
Frame rate : 23.976 fps
Color space : YUV
Chroma subsampling : 4:2:0
Bit depth : 8 bits
Scan type : Progressive
Bits/(Pixel*Frame) : 0.293
Stream size : 4.06 GiB (74%)
Title : Blade III – 720p
Writing library : x264 core 128 r2216 198a7ea
Encoding settings : cabac=1 / ref=5 / deblock=1:0:0 / analyse=0x3:0x113 / me=umh / subme=7 / psy=1 / psy_rd=1.00:0.00 / mixed_ref=1 / me_range=16 / chroma_me=1 / trellis=1 / 8x8dct=1 / cqm=0 / deadzone=21,11 / fast_pskip=0 / chroma_qp_offset=-2 / threads=4 / lookahead_threads=1 / sliced_threads=0 / nr=0 / decimate=1 / interlaced=0 / bluray_compat=0 / constrained_intra=0 / bframes=3 / b_pyramid=2 / b_adapt=1 / b_bias=0 / direct=1 / weightb=1 / open_gop=0 / weightp=2 / keyint=240 / keyint_min=22 / scenecut=40 / intra_refresh=0 / rc_lookahead=30 / rc=2pass / mbtree=1 / bitrate=4885 / ratetol=1.0 / qcomp=0.60 / qpmin=0 / qpmax=69 / qpstep=4 / cplxblur=20.0 / qblur=0.5 / ip_ratio=1.40 / aq=1:1.00
Language : English
Default : Yes
Forced : No

Audio
ID : 2
Format : DTS
Format/Info : Digital Theater Systems
Mode : 16
Format settings, Endianness : Big
Muxing mode : Header stripping
Codec ID : A_DTS
Duration : 2h 2mn
Bit rate mode : Constant
Bit rate : 1 509 Kbps
Channel(s) : 6 channels
Channel positions : Front: L C R, Side: L R, LFE
Sampling rate : 48.0 KHz
Bit depth : 24 bits
Compression mode : Lossy
Stream size : 1.29 GiB (24%)
Title : TRUEFR-DTS 1510kbps
Language : French
Default : Yes
Forced : No

Text #1
ID : 3
Format : UTF-8
Codec ID : S_TEXT/UTF8
Codec ID/Info : UTF-8 Plain Text
Title : FR forced
Language : French
Default : Yes
Forced : No

Text #2
ID : 4
Format : UTF-8
Codec ID : S_TEXT/UTF8
Codec ID/Info : UTF-8 Plain Text
Title : FR subs
Language : French
Default : No
Forced : No

Menu
00:00:00.000 : en:00:00:00.000
00:06:47.407 : en:00:06:47.407
00:12:59.362 : en:00:12:59.362
00:17:16.077 : en:00:17:16.077
00:18:48.419 : en:00:18:48.419
00:22:48.284 : en:00:22:48.284
00:27:05.624 : en:00:27:05.624
00:34:22.894 : en:00:34:22.894
00:41:07.674 : en:00:41:07.674
00:45:40.905 : en:00:45:40.905
00:50:55.886 : en:00:50:55.886
00:54:10.747 : en:00:54:10.747
00:58:08.026 : en:00:58:08.026
01:08:05.164 : en:01:08:05.164
01:17:54.712 : en:01:17:54.712
01:21:59.915 : en:01:21:59.915
01:28:32.057 : en:01:28:32.057
01:33:30.230 : en:01:33:30.230
01:41:31.711 : en:01:41:31.711
01:46:13.158 : en:01:46:13.158
01:50:45.013 : en:01:50:45.013
01:53:51.992 : en:01:53:51.992

Jeux Gratuit
15354131_1854970838071206_1069261547_o.png