Telecharger Bleu Saphir [BLURAY 720p] French

(TRUEFRENCH = Vraie voix française)

Qualité BLURAY 720p | MULTiLANGUES (Avec TRUEFRENCH) | son DTS

Bleu Saphir

Bleu Saphir

Origine du film : Allemand
Réalisateur : Felix Fuchssteiner
Acteurs : Maria Ehrich, Jannis Niewöhner
Genre : Drame, Fantastique, Romance
Année de production : 2014
Distribué par : Condor Entertainment
Note spectateurs : Bleu Saphir

; »>4,1/5 (157)
Bande annonce :

0480dc3d3dbc36fedbeaf091c425b439

19552446″>Cliquez-ici pour voir la bande annonce 0480dc3d3dbc36fedbeaf091c425b439″> 19552446

0480dc3d3dbc36fedbeaf091c425b439

Bleu Saphir

Le jour de ses 16 ans, Gwendolyn s’est découvert un don extraordinaire: le pouvoir de voyager dans le temps. Aux côtés de son équipier Gideon, elle accomplit des missions pour le compte des Veilleurs, une société secrète qui fouille le passé depuis des siècles. On raconte en effet qu’une fois le sang de tous les voyageurs du temps collecté, un immense pouvoir viendra guérir les maux de l’humanité. Mais est-ce la vérité ? Après avoir frôlé la mort dans des circonstances mystérieuses, Gwen décide d’enquêter sur les véritables intentions de ses « protecteurs ».
84808″ style= »display:inline; »>

Bleu Saphir

Format : MKV

Bleu Saphir

Bleu.Saphir.2014.MULTi.720p.BluRay.DTS.x264-#H&F

(6475 Mo)

[Liens Interchangeables entre hébergeurs: 6x 1000 Mo + 1x 475 Mo]

Uptobox
Télécharger

Uplea
Télécharger

1fichier
Télécharger

Uploaded
Télécharger

Rapidgator
Télécharger

TurboBit
Télécharger

1 Lien Premium – 6.3 Go

Uptobox Premium
Télécharger

Uplea Premium
Télécharger

1fichier Premium
Télécharger

Uploaded Premium
Télécharger

TurboBit Premium
Télécharger

NFO :

Afficher / Masquer le texte 38f416440e34d61504d6ca8ca131a8e5″ class= »text_spoiler » style= »display:none; »>General
Unique ID : 191869422085348983030105183654175947628 (0x9058B4DFD902636D9B146918C16DBB6C)
Complete name : Bleu.Saphir.2014.MULTi.720p.BluRay.DTS.x264-#H&F.mkv
Format : Matroska
Format version : Version 4 / Version 2
File size : 6.32 GiB
Duration : 1h 51mn
Overall bit rate : 8 117 Kbps
Encoded date : UTC 2015-05-10 21:00:36
Writing application : mkvmerge v7.8.0 (‘River Man’) 64bit built on Mar 27 2015 16:31:37
Writing library : libebml v1.3.1 + libmatroska v1.4.2
DURATION : 01:50:09.720000000
NUMBER_OF_FRAMES : 1745
NUMBER_OF_BYTES : 50660
_STATISTICS_WRITING_APP : mkvmerge v7.8.0 (‘River Man’) 64bit built on Mar 27 2015 16:31:37
_STATISTICS_WRITING_DATE_UT : 2015-05-10 21:00:36
_STATISTICS_TAGS : BPS DURATION NUMBER_OF_FRAMES NUMBER_OF_BYTES

Video
ID : 1
Format : AVC
Format/Info : Advanced Video Codec
Format profile : [email protected]
Format settings, CABAC : Yes
Format settings, ReFrames : 9 frames
Codec ID : V_MPEG4/ISO/AVC
Duration : 1h 51mn
Bit rate : 5 100 Kbps
Width : 1 280 pixels
Height : 552 pixels
Display aspect ratio : 2.35:1
Frame rate mode : Constant
Frame rate : 25.000 fps
Color space : YUV
Chroma subsampling : 4:2:0
Bit depth : 8 bits
Scan type : Progressive
Bits/(Pixel*Frame) : 0.289
Stream size : 3.85 GiB (61%)
Writing library : x264 core 146 r2538 121396c
Encoding settings : cabac=1 / ref=9 / deblock=1:-3:-3 / analyse=0x3:0x113 / me=umh / subme=11 / psy=1 / psy_rd=1.00:0.20 / mixed_ref=1 / me_range=64 / chroma_me=1 / trellis=2 / 8x8dct=1 / cqm=0 / deadzone=6,6 / fast_pskip=0 / chroma_qp_offset=-3 / threads=16 / lookahead_threads=1 / sliced_threads=0 / nr=0 / decimate=0 / interlaced=0 / bluray_compat=0 / constrained_intra=0 / bframes=5 / b_pyramid=2 / b_adapt=2 / b_bias=0 / direct=3 / weightb=1 / open_gop=1 / weightp=2 / keyint=250 / keyint_min=25 / scenecut=40 / intra_refresh=0 / rc_lookahead=250 / rc=2pass / mbtree=0 / bitrate=5100 / ratetol=1.0 / qcomp=0.80 / qpmin=0 / qpmax=69 / qpstep=4 / cplxblur=20.0 / qblur=0.5 / vbv_maxrate=62500 / vbv_bufsize=62500 / nal_hrd=none / filler=0 / ip_ratio=1.01 / pb_ratio=1.00 / aq=2:0.70
Language : English
Default : Yes
Forced : No
Color range : Limited
Color primaries : BT.709
Transfer characteristics : BT.709
Matrix coefficients : BT.709
DURATION : 01:51:32.560000000
NUMBER_OF_FRAMES : 167314
NUMBER_OF_BYTES : 4264580023
_STATISTICS_WRITING_APP : mkvmerge v7.8.0 (‘River Man’) 64bit built on Mar 27 2015 16:31:37
_STATISTICS_WRITING_DATE_UT : 2015-05-10 21:00:36
_STATISTICS_TAGS : BPS DURATION NUMBER_OF_FRAMES NUMBER_OF_BYTES

Audio #1
ID : 2
Format : DTS
Format/Info : Digital Theater Systems
Mode : 16
Format settings, Endianness : Big
Codec ID : A_DTS
Duration : 1h 51mn
Bit rate mode : Constant
Bit rate : 1 509 Kbps
Channel(s) : 6 channels
Channel positions : Front: L C R, Side: L R, LFE
Sampling rate : 48.0 KHz
Bit depth : 16 bits
Compression mode : Lossy
Stream size : 1.18 GiB (19%)
Title : Audio Français DTS @ 1509 Kbps
Language : French
Default : Yes
Forced : No

Audio #2
ID : 3
Format : DTS
Format/Info : Digital Theater Systems
Mode : 16
Format settings, Endianness : Big
Codec ID : A_DTS
Duration : 1h 51mn
Bit rate mode : Constant
Bit rate : 1 509 Kbps
Channel(s) : 6 channels
Channel positions : Front: L C R, Side: L R, LFE
Sampling rate : 48.0 KHz
Bit depth : 16 bits
Compression mode : Lossy
Stream size : 1.18 GiB (19%)
Title : Audio Allemand DTS @ 1509 Kbps
Language : German
Default : No
Forced : No

Text #1
ID : 4
Format : UTF-8
Codec ID : S_TEXT/UTF8
Codec ID/Info : UTF-8 Plain Text
Title : Sous titres français forcés SRT
Language : French
Default : Yes
Forced : No

Text #2
ID : 5
Format : UTF-8
Codec ID : S_TEXT/UTF8
Codec ID/Info : UTF-8 Plain Text
Title : Sous titres Français complets SRT
Language : French
Default : No
Forced : No

Menu
00:00:00.000 : en:
00:07:52.240 : en:
00:17:08.680 : en:
00:26:41.760 : en:
00:36:46.320 : en:
00:45:19.640 : en:
00:56:03.840 : en:
01:02:17.240 : en:
01:09:07.200 : en:
01:22:58.680 : en:
01:29:35.680 : en:
01:35:44.840 : en:

Jeux Gratuit
15354131_1854970838071206_1069261547_o.png