Telecharger Blindness [BLURAY 720p] French

(TRUEFRENCH = Vraie voix française)

BLURAY 720p | TRUEFRENCH

Blindness

Blindness

Blindness

Origine du film : Brésilien, Canadien, Japonais
Réalisateur : Fernando Meirelles
Acteurs : Julianne Moore, Mark Ruffalo, Alice Braga
Genre : Drame, Science fiction
Durée : 1h58min
Date de sortie : 8 octobre 2008
Année de production : 2008
Distribué par : Pathé Distribution
Note presse : Blindness 2,9/5
Note spectateurs : Blindness 3/5 (1 516)
Bande annonce :

ca58fafb99dae3bd874c2966b14a7792

18835131″>Cliquez-ici pour voir la bande annonce ca58fafb99dae3bd874c2966b14a7792″> 18835131

ca58fafb99dae3bd874c2966b14a7792

Blindness

Le pays est frappé par une épidémie de cécité qui se propage à une vitesse fulgurante. Les premiers contaminés sont mis en quarantaine dans un hôpital désaffecté où ils sont rapidement livrés à eux-mêmes, privés de tout repère. Ils devront faire face au besoin primitif de chacun : la volonté de survivre à n'importe quel prix. Seule une femme n'a pas été touchée par la  » blancheur lumineuse « . Elle va les guider pour échapper aux instincts les plus vils et leur faire reprendre espoir en la condition humaine.
68618″ style= »display:inline; »>

Blindness

Qualité : BLURAY 720p
Format : MKV
Langue : Français
Découpé avec : Winrar
Nombre de fichiers : 7 Fichiers
Taille des fichiers : 1000 Mo + 254 Mo

Blindness

[Liens Interchangeables]

Blindness.2008.TRUEFRENCH.720p.BluRay.x264.AC3-lanesra13 ( 6254 Mo)

Uptobox
Télécharger

Uplea
Télécharger

1fichier
Télécharger

Uploaded
Télécharger

Rapidgator
Télécharger

TurboBit
Télécharger

[ 1 lien Premium – 6,2 Go ]

Uptobox
Télécharger

Uplea
Télécharger

1fichier
Télécharger

TurboBit
Télécharger

[ 2 liens Premium – 4 Go + 2,1 Go ]

Uploaded
Partie 1
Partie 2

NFO :

Afficher / Masquer le texte 9d482947cee162fb8028efefd7bcad90″ class= »text_spoiler » style= »display:none; »>General
Complete name : Blindness.2008.TRUEFRENCH.720p.BluRay.x264.AC3-lanesra13.mkv
Format : Matroska
Format version : Version 2
File size : 6.11 GiB
Duration : 2h 1mn
Overall bit rate : 7 217 Kbps
Movie name : BLINDNESS.Title0.BlurayRip
Encoded date : UTC 2011-02-27 12:23:49
Writing application : DVDFab
Writing library : libebml v0.7.8 + libmatroska v0.8.1

Video
ID : 1
Format : AVC
Format/Info : Advanced Video Codec
Format profile : [email protected]
Format settings, CABAC : Yes
Format settings, ReFrames : 2 frames
Codec ID : V_MPEG4/ISO/AVC
Duration : 2h 1mn
Bit rate : 6 562 Kbps
Width : 1 280 pixels
Height : 692 pixels
Display aspect ratio : 1.85:1
Frame rate mode : Constant
Frame rate : 24.000 fps
Color space : YUV
Chroma subsampling : 4:2:0
Bit depth : 8 bits
Scan type : Progressive
Bits/(Pixel*Frame) : 0.309
Stream size : 5.55 GiB (91%)
Writing library : x264 core
Default : Yes
Forced : No
Color primaries : BT.709
Transfer characteristics : BT.709
Matrix coefficients : BT.709

Audio
ID : 2
Format : AC-3
Format/Info : Audio Coding 3
Mode extension : CM (complete main)
Format settings, Endianness : Big
Codec ID : A_AC3
Duration : 2h 1mn
Bit rate mode : Constant
Bit rate : 512 Kbps
Channel(s) : 6 channels
Channel positions : Front: L C R, Side: L R, LFE
Sampling rate : 48.0 KHz
Bit depth : 16 bits
Compression mode : Lossy
Stream size : 444 MiB (7%)
Default : Yes
Forced : No

Menu
00:00:00.000 : en:(01)00:00:00:000
00:09:54.250 : en:(02)00:09:54:250
00:19:39.625 : en:(03)00:19:39:625
00:29:08.125 : en:(04)00:29:08:125
00:37:37.166 : en:(05)00:37:37:166
00:47:42.791 : en:(06)00:47:42:791
00:57:06.500 : en:(07)00:57:06:500
01:06:26.708 : en:(08)01:06:26:708
01:16:41.000 : en:(09)01:16:41:000
01:23:39.458 : en:(10)01:23:39:458
01:30:33.416 : en:(11)01:30:33:416
01:41:17.416 : en:(12)01:41:17:416
01:49:31.541 : en:(13)01:49:31:541
01:53:02.000 : en:(14)01:53:02:000

Jeux Gratuit
15354131_1854970838071206_1069261547_o.png