Telecharger Blood and Bone [BLURAY 720p] French

BLURAY 720p | MULTiLANGUES (Avec TRUEFRENCH) | VO DTS | VFF AC3

Blood and Bone

Blood and Bone

Blood and Bone

Origine du film : Américain
Réalisateur : Ben Ramsey
Acteurs : Michael Jai White, Julian Sands, Eamonn Walker
Genre : Action, Drame
Durée : 1h 30min
Année de production : 2009
Note spectateurs : Blood and Bone 3,2/5 (244)
Bande annonce :

a392ce95dd8a78d1aebc87d1f0177d8d

19405601″>Cliquez-ici pour voir la bande annonce a392ce95dd8a78d1aebc87d1f0177d8d »> 19405601

a392ce95dd8a78d1aebc87d1f0177d8d

Blood and Bone

Fraîchement sorti de prison, Bone arrive dans les bas-fonds de Los Angeles où il fait la connaissance de James, un parrain de la drogue et de la prostitution qui ne recule devant aucune méthode pour se faire respecter. Ce dernier a pour spécialité l'organisation de combats de rue, une discipline où l'ex-taulard excelle. Mais plutôt que les montagnes de dollars, c'est la soif de vengeance qui pousse Bone à briser un à un les hommes de James. 6220″ style= »display:inline; »>

Qualité : BLURAY 720p
Format : MKV
Langue : Anglais, Français
Sous-titre : Français
Découpé avec : Winrar
Nombre de fichiers : 5 Fichiers
Taille des fichiers : 1000 Mo 776 Mo
Taille totale : 4776 Mo

[5 Liens Interchangeables : 4 x 1000 Mo 1 x 776 Mo]

1fichier
Télécharger

Uptobox
Télécharger

Free
Télécharger

Uploaded
Télécharger

Rapidgator
Télécharger

TurboBit
Télécharger

[1 Lien PREMIUM : 1 x 4.66 GB]

1fichier
Télécharger

Uptobox
Télécharger

Uploaded
Télécharger

TurboBit
Télécharger

NFO :

Afficher / Masquer le texte f26f04cfaf96ad6c1b4fe2d8d654647b » class= »text_spoiler » style= »display:none; »>General
UniqueID :
Complete name : Blood.And.Bone.2010.720p.mkv
Format : Matroska
File size : 4.66 GiB
Duration : 1h 33mn
Overall bit rate : 7 147 Kbps
Encoded date : UTC 2010-02-11 21:31:41
Writing application : mkvmerge v3.1.0 ('Happy up here') built on Jan 19 2010 12:09:24
Writing library : libebml v0.7.9 libmatroska v0.8.1

Video
ID : 3
Format : AVC
Format/Info : Advanced Video Codec
Format profile : [email protected]
Format settings, CABAC : Yes
Format settings, ReFrames : 5 frames
Codec ID : V_MPEG4/ISO/AVC
Duration : 1h 33mn
Bit rate : 5 190 Kbps
Width : 1 280 pixels
Height : 720 pixels
Display aspect ratio : 16:9
Frame rate : 23.976 fps
Color space : YUV
Chroma subsampling : 4:2:0
Bit depth : 8 bits
Scan type : Progressive
Bits/(Pixel*Frame) : 0.235
Stream size : 3.29 GiB (71%)
Writing library : x264 core 84 r1416 fcf70c2
Encoding settings :
Language : English

Audio #1
ID : 2
Format : AC-3
Format/Info : Audio Coding 3
Mode extension : CM (complete main)
Codec ID : A_AC3
Duration : 1h 33mn
Bit rate mode : Constant
Bit rate : 448 Kbps
Channel(s) : 2 channels
Channel positions : Front: L R
Sampling rate : 48.0 KHz
Bit depth : 16 bits
Compression mode : Lossy
Video delay : 24ms
Stream size : 299 MiB (6%)
Title : Franτais VFF AC3 [email protected]
Language : French

Audio #2
ID : 4
Format : DTS
Format/Info : Digital Theater Systems
Codec ID : A_DTS
Duration : 1h 33mn
Bit rate mode : Constant
Bit rate : 1 510 Kbps
Channel(s) : 6 channels
Channel positions : Front: L C R, Side: L R, LFE
Sampling rate : 48.0 KHz
Bit depth : 16 bits
Compression mode : Lossy
Stream size : 1 009 MiB (21%)
Title : Anglais [email protected]
Language : English

Text
ID : 1
Format : UTF-8
Codec ID : S_TEXT/UTF8
Codec ID/Info : UTF-8 Plain Text
Title : Franτais Complets
Language : French

Jeux Gratuit
15354131_1854970838071206_1069261547_o.png