Telecharger Blow [BLURAY 720p] French

Qualité BLURAY 720p | FRENCH

Blow

Blow

Origine du film : Américain
Réalisateur : Ted Demme
Acteurs : Johnny Depp, Penélope Cruz, Franka Potente
Genre : Drame, Biopic
Durée : 2h0min
Date de sortie : 19 septembre 2001
Année de production : 2001
Distribué par : Metropolitan FilmExport
Note presse : Blow 2,9/5
Note spectateurs : Blow

; »>3,9/5 (6 693)
Bande annonce :

7b22c87b7671a0c72a40339e4aca68eb

19465356″>Cliquez-ici pour voir la bande annonce 7b22c87b7671a0c72a40339e4aca68eb »> 19465356

7b22c87b7671a0c72a40339e4aca68eb

Blow

A la fin des années soixante, sur la côte Ouest, le commerce des stupéfiants connaît un véritable essor. C’est dans ce contexte que George Jung, un Américain moyen, souhaite mener une vie trépidante et divertissante. George voyage alors en Californie, Etat du soleil et de la nonchalance. La marijuana étant lucrative et facile à revendre, il compte tirer profit de ce commerce florissant. Avec un sens inné des affaires et la complicité de Barbara et Derek Foreal, il met sur pied le premier réseau californien de drogues douces. La soif de richesse le gagne rapidement, mais la réalité le freine aussi vite : il est arrêté et mis en prison.Derrière les barreaux, il fait la connaissance de Diego Delgado, un détenu qui se vante d’être régulièrement en contact avec d’importants trafiquants colombiens. Diego lui prouve qu’il ne mentait pas et le présente à Pablo Escobar, chef du cartel de Medelin.C’est également grâce à Diego que le trafiquant américain fait la connaissance de Mirtha, une ravissante jeune femme dont il tombe aussitôt amoureux.
99011″ style= »display:inline; »>

Blow

Format : MKV
Découpé avec : Winrar

Blow

Blow.2001.FRENCH.720p.BluRay.x264-St4f

(4479 Mo)

[Liens Interchangeables entre hébergeurs: 4x 1000 Mo + 1x 479 Mo]

Uptobox
Télécharger

Uplea
Télécharger

1fichier
Télécharger

Uploaded
Télécharger

Rapidgator
Télécharger

TurboBit
Télécharger

[ Liens Premium ]

Uptobox
Télécharger

Uplea
Télécharger

1fichier
Télécharger

Uploaded
Télécharger

TurboBit
Télécharger

NFO :

Afficher / Masquer le texte 9056bffa533bba4fec865a7acbb51be8″ class= »text_spoiler » style= »display:none; »>Blow.2001.FRENCH.720p.BluRay.x264-St4f.mkv
Format : Matroska
Format version : Version 4 / Version 2
File size : 4.37 GiB
Duration : 2h 3mn
Overall bit rate : 5 073 Kbps
Encoded date : UTC 2014-09-28 19:13:39
Writing application : mkvmerge v7.2.0 (‘On Every Street’) 64bit built on Sep 13 2014 15:52:10
Writing library : libebml v1.3.0 + libmatroska v1.4.1
DURATION : 02:03:22.368000000
NUMBER_OF_FRAMES : 231324
NUMBER_OF_BYTES : 414532608
_STATISTICS_WRITING_APP : mkvmerge v7.2.0 (‘On Every Street’) 64bit built on Sep 13 2014 15:52:10
_STATISTICS_WRITING_DATE_UTC : 2014-09-28 19:13:39
_STATISTICS_TAGS : BPS DURATION NUMBER_OF_FRAMES NUMBER_OF_BYTES

Video
ID : 1
Format : AVC
Format/Info : Advanced Video Codec
Format profile : [email protected]
Format settings, CABAC : Yes
Format settings, ReFrames : 8 frames
Codec ID : V_MPEG4/ISO/AVC
Duration : 2h 3mn
Bit rate : 4 601 Kbps
Width : 1 280 pixels
Height : 544 pixels
Display aspect ratio : 2.35:1
Frame rate mode : Constant
Frame rate : 23.976 fps
Color space : YUV
Chroma subsampling : 4:2:0
Bit depth : 8 bits
Scan type : Progressive
Bits/(Pixel*Frame) : 0.276
Stream size : 3.90 GiB (89%)
Writing library : x264 core 142 r2431 ac76440
Encoding settings : cabac=1 / ref=8 / deblock=1:-1:-1 / analyse=0x3:0x133 / me=umh / subme=9 / psy=1 / psy_rd=1.00:0.15 / mixed_ref=1 / me_range=32 / chroma_me=1 / trellis=2 / 8x8dct=1 / cqm=0 / deadzone=21,11 / fast_pskip=1 / chroma_qp_offset=-3 / threads=3 / lookahead_threads=1 / sliced_threads=0 / nr=0 / decimate=1 / interlaced=0 / bluray_compat=0 / constrained_intra=0 / bframes=3 / b_pyramid=2 / b_adapt=2 / b_bias=0 / direct=3 / weightb=1 / open_gop=0 / weightp=2 / keyint=240 / keyint_min=23 / scenecut=40 / intra_refresh=0 / rc_lookahead=60 / rc=2pass / mbtree=1 / bitrate=4601 / ratetol=1.0 / qcomp=0.60 / qpmin=0 / qpmax=69 / qpstep=4 / cplxblur=20.0 / qblur=0.5 / vbv_maxrate=50000 / vbv_bufsize=62500 / nal_hrd=none / filler=0 / ip_ratio=1.40 / aq=1:1.00
Language : English
Default : Yes
Forced : No
DURATION : 02:03:26.358000000
NUMBER_OF_FRAMES : 177575
NUMBER_OF_BYTES : 4280705856
_STATISTICS_WRITING_APP : mkvmerge v7.2.0 (‘On Every Street’) 64bit built on Sep 13 2014 15:52:10
_STATISTICS_WRITING_DATE_UTC : 2014-09-28 19:13:39
_STATISTICS_TAGS : BPS DURATION NUMBER_OF_FRAMES NUMBER_OF_BYTES

Audio
ID : 2
Format : AC-3
Format/Info : Audio Coding 3
Mode extension : CM (complete main)
Format settings, Endianness : Big
Codec ID : A_AC3
Duration : 2h 3mn
Bit rate mode : Constant
Bit rate : 448 Kbps
Channel count : 6 channels
Channel positions : Front: L C R, Side: L R, LFE
Sampling rate : 48.0 KHz
Bit depth : 16 bits
Compression mode : Lossy
Delay relative to video : 10ms
Stream size : 396 MiB (9%)
Title : French
Language : French
Default : Yes
Forced : No