Telecharger Blue Ruin [BLURAY 720p] French

(TRUEFRENCH = Vraie voix française)

BLURAY 720p | TRUEFRENCH (VFi)

Blue Ruin

Blue Ruin

Blue Ruin

Origine du film : Américain
Réalisateur : Jeremy Saulnier
Acteurs : Macon Blair, Devin Ratray, Amy Hargreaves
Genre : Thriller, Drame
Durée : 1h34min
Date de sortie : 9 juillet 2014
Année de production : 2013
Distribué par : The Jokers / Le Pacte
Note presse : Blue Ruin 4,0/5
Note spectateurs : Blue Ruin

; »>3,4/5 (858)
Bande annonce :

a0c680f79c1ca817b5f4a4a23240b4f9

19545265″>Cliquez-ici pour voir la bande annonce a0c680f79c1ca817b5f4a4a23240b4f9″> 19545265

a0c680f79c1ca817b5f4a4a23240b4f9

Blue Ruin

Un vagabond solitaire voit sa vie bouleversée lorsqu'il retourne à sa maison d'enfance pour accomplir une vieille vengeance. Se faisant assassin amateur, il est entraîné dans un conflit brutal pour protéger sa famille qui lui est étrangère.
64506″ style= »display:inline; »>

Blue Ruin

Qualité : BLURAY 720p
Format : MKV
Langue : Français
Nombre de fichiers : 4 Fichiers
Taille des fichiers : 1000 Mo + 787 Mo

Blue Ruin

Ps: Les liens sont interchangeables, prenez une partie de chaque hébergeur pour télécharger plusieurs fichiers en même temps.

Blue.Ruin.2013.FRENCH.720p.BluRay.x264.AC3-CNF30 ( 3787 Mo)

Uptobox
Télécharger

Uplea
Télécharger

1fichier
Télécharger

Uploaded
Télécharger

Rapidgator
Télécharger

TurboBit
Télécharger

1 Lien Premium – 3.7 Go

Uptobox Premium
Télécharger

Uplea Premium
Télécharger

1fichier Premium
Télécharger

Uploaded Premium
Télécharger

TurboBit Premium
Télécharger

NFO :

Afficher / Masquer le texte 889b07c777348f59207d337c86dae37d » class= »text_spoiler » style= »display:none; »>
Format : Matroska
Format version : Version 4 / Version 2
File size : 3.70 GiB
Duration : 1h 30mn
Overall bit rate : 5 837 Kbps
Encoded date : UTC 2014-11-12 02:21:19
Writing application : mkvmerge v6.8.0 (‘Theme for Great Cities’) 64bit built on Mar 2 2014 21:34:26
Writing library : libebml v1.3.0 + libmatroska v1.4.1

Video
ID : 1
Format : AVC
Format/Info : Advanced Video Codec
Format profile : [email protected]
Format settings, CABAC : Yes
Format settings, ReFrames : 5 frames
Codec ID : V_MPEG4/ISO/AVC
Duration : 1h 30mn
Bit rate : 5 407 Kbps
Width : 1 280 pixels
Height : 536 pixels
Display aspect ratio : 2.40:1
Frame rate mode : Constant
Frame rate : 23.976 fps
Color space : YUV
Chroma subsampling : 4:2:0
Bit depth : 8 bits
Scan type : Progressive
Bits/(Pixel*Frame) : 0.329
Stream size : 3.34 GiB (90%)
Writing library : x264 core 142 r2431 ac76440
Encoding settings : cabac=1 / ref=5 / deblock=1:0:0 / analyse=0x3:0x133 / me=umh / subme=7 / psy=1 / psy_rd=1.00:0.00 / mixed_ref=1 / me_range=16 / chroma_me=1 / trellis=1 / 8x8dct=1 / cqm=0 / deadzone=21,11 / fast_pskip=0 / chroma_qp_offset=-2 / threads=18 / lookahead_threads=3 / sliced_threads=0 / nr=0 / decimate=1 / interlaced=0 / bluray_compat=0 / constrained_intra=0 / bframes=3 / b_pyramid=2 / b_adapt=1 / b_bias=0 / direct=1 / weightb=1 / open_gop=0 / weightp=2 / keyint=250 / keyint_min=23 / scenecut=40 / intra_refresh=0 / rc_lookahead=40 / rc=2pass / mbtree=1 / bitrate=5407 / ratetol=1.0 / qcomp=0.60 / qpmin=0 / qpmax=69 / qpstep=4 / cplxblur=20.0 / qblur=0.5 / ip_ratio=1.40 / aq=1:1.00
Language : English
Default : Yes
Forced : No

Audio
ID : 2
Format : AC-3
Format/Info : Audio Coding 3
Mode extension : CM (complete main)
Format settings, Endianness : Big
Codec ID : A_AC3
Duration : 1h 30mn
Bit rate mode : Constant
Bit rate : 448 Kbps
Channel(s) : 6 channels
Channel positions : Front: L C R, Side: L R, LFE
Sampling rate : 48.0 KHz
Bit depth : 16 bits
Compression mode : Lossy
Delay relative to video : 8ms
Stream size : 291 MiB (8%)
Title : French VFI
Default : Yes
Forced : No