Télécharger Bob l'éponge – Le film : Un héros sort de l'eau Blu-Ray 3D

(TRUEFRENCH = Vraie voix française)

Qualité BLURAY 3D SBS | TRUEFRENCH

Bob l'éponge - Le film : Un héros sort de l'eau

Bob l'éponge - Le film : Un héros sort de l'eau

Origine du film : Américain
Réalisateur : Paul Tibbitt
Acteurs : Tom Kenny, Bill Fagerbakke, Clancy Brown
Genre : Animation, Aventure, Comédie, Famille
Durée : 1h33min
Date de sortie : 18 février 2015
Année de production : 2015
Titre Original : The Spongebob Movie: Sponge Out Of Water
Distribué par : Paramount Pictures France
Note presse : Bob l'éponge - Le film : Un héros sort de l'eau 2,8/5
Note spectateurs : Bob l'éponge - Le film : Un héros sort de l'eau 2,1/5 (629)
Bande annonce :

786f64f37bc743d40a92bf7248de4873

19551046″>Cliquez-ici pour voir la bande annonce 786f64f37bc743d40a92bf7248de4873″> 19551046

786f64f37bc743d40a92bf7248de4873

Bob l'éponge - Le film : Un héros sort de l'eau

Tout baigne à Bikini Bottom pour Bob l’éponge, l’éternel optimiste et ses amis: Patrick l’étoile de mer fidèle, Carlo le calamar égoïste, Sandy l’écureuil et Monsieur Krabs, le crustacé obsédé par l’argent!Cependant tout bascule quand la recette du pâté de crabe est volée par le diabolique pirate Steak Barbare (et les mouettes qui ne le quittent jamais…) ! Pour sauver leur monde, Bob et ses amis vont unir leurs forces (avec l’aide de Plankton, l’ennemi de toujours !) et débarquer dans le nôtre ! Transformés en super-héros, ils vont apprendre à maîtriser leurs super-pouvoirs, mais … ça va faire des vagues !
85339″ style= »display:inline; »>

Bob l'éponge - Le film : Un héros sort de l'eau

Format : MKV

Bob l'éponge - Le film : Un héros sort de l'eau

The.SpongeBob.Movie.Sponge.out.of.Water.2015.3D.SBS.1080P-3DPassion

(3894 Mo)

[Liens Interchangeables entre hébergeurs: 3x 1000 Mo + 1x 894 Mo]

Uptobox
Télécharger

Uplea
Télécharger

1fichier
Télécharger

Uploaded
Télécharger

Rapidgator
Télécharger

TurboBit
Télécharger

1 Lien Premium – 3.8 Go

Uptobox
Télécharger

Uplea
Télécharger

1fichier
Télécharger

Uploaded
Télécharger

TurboBit
Télécharger

NFO :

Afficher / Masquer le texte 22bbdb1a97f3e7dec148e45a8342768a » class= »text_spoiler » style= »display:none; »>General
Complete name : /The.SpongeBob.Movie.Sponge.out.of.Water.2015.3D.SBS.1080P.3DPassion.mkv
Format : Matroska
Format version : Version 4 / Version 2
File size : 3.80 GiB
Duration : 1h 32mn
Overall bit rate : 5 881 Kbps
Encoded date : UTC 2015-05-21 09:46:47
Writing application : mkvmerge v7.6.0 (‘Garden of Dreams’) 64bit built on Feb 8 2015 15:43:43
Writing library : libebml v1.3.1 + libmatroska v1.4.2
DURATION : 01:32:34.496000000
NUMBER_OF_FRAMES : 173578
NUMBER_OF_BYTES : 444359680
_STATISTICS_WRITING_APP : mkvmerge v7.6.0 (‘Garden of Dreams’) 64bit built on Feb 8 2015 15:43:43
_STATISTICS_WRITING_DATE_UTC : 2015-05-21 09:46:47
_STATISTICS_TAGS : BPS DURATION NUMBER_OF_FRAMES NUMBER_OF_BYTES

Video
ID : 1
Format : AVC
Format/Info : Advanced Video Codec
Format profile : [email protected]
Format settings, CABAC : Yes
Format settings, ReFrames : 4 frames
Codec ID : V_MPEG4/ISO/AVC
Duration : 1h 32mn
Bit rate : 5 245 Kbps
Width : 1 920 pixels
Height : 1 080 pixels
Display aspect ratio : 16:9
Frame rate mode : Constant
Frame rate : 23.976 fps
Color space : YUV
Chroma subsampling : 4:2:0
Bit depth : 8 bits
Scan type : Progressive
Bits/(Pixel*Frame) : 0.105
Stream size : 3.31 GiB (87%)
Writing library : x264 core 144 r2525 40bb568
Encoding settings : cabac=1 / ref=4 / deblock=1:0:0 / analyse=0x3:0x133 / me=umh / subme=7 / psy=1 / psy_rd=1.00:0.00 / mixed_ref=1 / me_range=16 / chroma_me=1 / trellis=1 / 8x8dct=1 / cqm=0 / deadzone=21,11 / fast_pskip=0 / chroma_qp_offset=-2 / threads=48 / lookahead_threads=8 / sliced_threads=0 / nr=0 / decimate=1 / interlaced=0 / bluray_compat=0 / constrained_intra=0 / bframes=3 / b_pyramid=2 / b_adapt=1 / b_bias=0 / direct=1 / weightb=1 / open_gop=0 / weightp=2 / keyint=250 / keyint_min=23 / scenecut=40 / intra_refresh=0 / rc_lookahead=40 / rc=2pass / mbtree=1 / bitrate=5245 / ratetol=1.0 / qcomp=0.60 / qpmin=0 / qpmax=69 / qpstep=4 / cplxblur=20.0 / qblur=0.5 / ip_ratio=1.40 / aq=1:1.00
Language : English
Default : Yes
Forced : No
DURATION : 01:32:31.713000000
NUMBER_OF_FRAMES : 133108
NUMBER_OF_BYTES : 3637818472
_STATISTICS_WRITING_APP : mkvmerge v7.6.0 (‘Garden of Dreams’) 64bit built on Feb 8 2015 15:43:43
_STATISTICS_WRITING_DATE_UTC : 2015-05-21 09:46:47
_STATISTICS_TAGS : BPS DURATION NUMBER_OF_FRAMES NUMBER_OF_BYTES

Audio
ID : 2
Format : AC-3
Format/Info : Audio Coding 3
Mode extension : CM (complete main)
Format settings, Endianness : Big
Codec ID : A_AC3
Duration : 1h 32mn
Bit rate mode : Constant
Bit rate : 640 Kbps
Channel(s) : 6 channels
Channel positions : Front: L C R, Side: L R, LFE
Sampling rate : 48.0 KHz
Bit depth : 16 bits
Compression mode : Lossy
Stream size : 424 MiB (11%)
Title : Bande FR AC3 5.1
Language : French
Default : Yes
Forced : No

Menu
00:00:00.000 : en:00:00:00.000
00:03:40.387 : en:00:03:40.387
00:06:22.173 : en:00:06:22.173
00:12:29.999 : en:00:12:29.999
00:18:21.600 : en:00:18:21.600
00:22:52.079 : en:00:22:52.079
00:30:14.688 : en:00:30:14.688
00:35:37.886 : en:00:35:37.886
00:39:50.972 : en:00:39:50.972
00:43:13.424 : en:00:43:13.424
00:50:54.510 : en:00:50:54.510
00:55:16.396 : en:00:55:16.396
01:00:03.099 : en:01:00:03.099
01:04:19.355 : en:01:04:19.355
01:10:16.587 : en:01:10:16.587
01:16:20.367 : en:01:16:20.367
01:20:29.491 : en:01:20:29.491
01:23:30.839 : en:01:23:30.839

1543
-
Votes : 0
Jeux Gratuit
15354131_1854970838071206_1069261547_o.png