Telecharger Bonobos [BLURAY 720p] French

BLURAY 720p | FRENCH | son DTS

Bonobos

Bonobos

Bonobos

Origine du film : Français
Réalisateur : Alain Tixier
Acteurs : Sandrine Bonnaire, Emmanuel Curtil, Claudine André
Genre : Documentaire
Durée : 1h 30min
Date de sortie : 30 mars 2011
Année de production : 2010
Distribué par : SND
Note presse : Bonobos 2,9/5
Note spectateurs : Bonobos 3,8/5 (170)
Bande annonce :

ceda8985e7bed8ba26eecd7fa21d5f4b

19196904″>Cliquez-ici pour voir la bande annonce ceda8985e7bed8ba26eecd7fa21d5f4b »> 19196904

ceda8985e7bed8ba26eecd7fa21d5f4b

Bonobos

Il était une fois au cœur du Congo une espèce de grands singes que l’on ne trouve nulle part ailleurs, les bonobos. Plus intelligents, plus farceurs, plus fascinants que tous les autres singes, ils sont pourtant en voie de disparition. Claudine André, qui consacre sa vie à leur défense, a ouvert une réserve unique au monde. Elle va y accueillir Béni, un petit bonobo capturé par les hommes, qui va réapprendre la vie en communauté et se préparer à affronter les dangers de la jungle. 21894″ style= »display:inline; »>

Bonobos

Qualité : BLURAY 720p
Format : MKV
Langue : Français
Découpé avec : Winrar
Nombre de fichiers : 7 Fichiers
Taille des fichiers : 999 Mo 225 Mo
Taille totale : 6219 Mo

Bonobos

[Liens Interchangeables]

Bonobos.2011.FRENCH.720p.BluRay.x264-ATLAS (4,4 Go)

Uptobox
Télécharger

Uplea
Télécharger

1fichier
Télécharger

Uploaded
Télécharger

Rapidgator
Télécharger

TurboBit
Télécharger

[ 1 Lien Premium ]

Uptobox
Télécharger

Uplea
Télécharger

1fichier
Télécharger

Uploaded
Télécharger

TurboBit
Télécharger

NFO :

Afficher / Masquer le texte 88e8a4e7c41afb360daed632ff49288b » class= »text_spoiler » style= »display:none; »>General
Unique ID : 227594971224339303284753167053999934321 (0xAB3932706169B122ACF269CE1B818B71)
Complete name : Bonobos.2011.FRENCH.720p.BluRay.x264-ATLAS.mkv
Format : Matroska
Format version : Version 2
File size : 4.37 GiB
Duration : 1h 28mn
Overall bit rate : 7 061 Kbps
Encoded date : UTC 2012-04-17 10:49:46
Writing application : mkvmerge v5.5.0 (‘Healer’) built on Apr 6 2012 21:43:24
Writing library : libebml v1.2.3 + libmatroska v1.3.0

Video
ID : 1
Format : AVC
Format/Info : Advanced Video Codec
Format profile : [email protected]
Format settings, CABAC : Yes
Format settings, ReFrames : 5 frames
Codec ID : V_MPEG4/ISO/AVC
Duration : 1h 28mn
Bit rate : 5 552 Kbps
Width : 1 280 pixels
Height : 720 pixels
Display aspect ratio : 16:9
Frame rate : 23.976 fps
Color space : YUV
Chroma subsampling : 4:2:0
Bit depth : 8 bits
Scan type : Progressive
Bits/(Pixel*Frame) : 0.251
Stream size : 3.35 GiB (77%)
Writing library : x264 core 122 r2184 5c85e0a
Encoding settings : cabac=1 / ref=5 / deblock=1:0:0 / analyse=0x3:0x113 / me=umh / subme=7 / psy=1 / psy_rd=1.00:0.00 / mixed_ref=1 / me_range=16 / chroma_me=1 / trellis=1 / 8x8dct=1 / cqm=0 / deadzone=21,11 / fast_pskip=0 / chroma_qp_offset=-2 / threads=18 / sliced_threads=0 / nr=0 / decimate=1 / interlaced=0 / bluray_compat=0 / constrained_intra=0 / bframes=3 / b_pyramid=2 / b_adapt=1 / b_bias=0 / direct=1 / weightb=1 / open_gop=0 / weightp=2 / keyint=250 / keyint_min=23 / scenecut=40 / intra_refresh=0 / rc_lookahead=40 / rc=2pass / mbtree=1 / bitrate=5552 / ratetol=1.0 / qcomp=0.60 / qpmin=0 / qpmax=69 / qpstep=4 / cplxblur=20.0 / qblur=0.5 / ip_ratio=1.40 / aq=1:1.00
Language : French
Default : Yes
Forced : No

Audio
ID : 2
Format : DTS
Format/Info : Digital Theater Systems
Codec ID : A_DTS
Duration : 1h 28mn
Bit rate mode : Constant
Bit rate : 1 510 Kbps
Channel(s) : 6 channels
Channel positions : Front: L C R, Side: L R, LFE
Sampling rate : 48.0 KHz
Bit depth : 24 bits
Compression mode : Lossy
Stream size : 956 MiB (21%)
Title : DTS 5.1
Language : French
Default : Yes
Forced : No

Jeux Gratuit
15354131_1854970838071206_1069261547_o.png