Telecharger Boyz'n the Hood, la loi de la rue [BLURAY 720p] French

(TRUEFRENCH = Vraie voix française)

BLURAY 720p | MULTiLANGUES (Avec TRUEFRENCH)

Boyz'n the Hood, la loi de la rue

Boyz'n the Hood, la loi de la rue

Boyz'n the Hood, la loi de la rue

Origine du film : Américain
Réalisateur : John Singleton
Acteurs : Cuba Gooding Jr., Ice Cube, Morris Chestnut
Genre : Drame, Policier
Durée : 1h 52min
Année de production : 1990
Titre Original : Boyz'n the Hood
Note spectateurs : Boyz'n the Hood, la loi de la rue 3,6/5 (972)
Bande annonce :

adf6360318c6e708c869956634e3a289

19388279″>Cliquez-ici pour voir la bande annonce adf6360318c6e708c869956634e3a289″> 19388279

adf6360318c6e708c869956634e3a289

Boyz'n the Hood, la loi de la rue

Le passage de l'adolescence a l'age d'homme pour trois heros de la rue d'une banlieue de Los Angeles. Premier film de John Singleton fortement inspire de sa propre experience.

Nom de la release : Boyz.n.the.Hood.1991.MULTi.720p.BluRay.x264 26783″ style= »display:inline; »>

Qualité : BLURAY 720p
Format : MKV
Langue : Anglais, Français
Sous-titre : Anglais, Français
Découpé avec : Winrar
Nombre de fichiers : 5 Fichiers
Taille des fichiers : 1000 Mo 601 Mo
Taille totale : 4601 Mo

[5 Liens Interchangeables : 4 x 1000 Mo 1 x 601 Mo]

1fichier
Télécharger

Uptobox
Télécharger

Free
Télécharger

Uploaded
Télécharger

Rapidgator
Télécharger

TurboBit
Télécharger

[1 lien PREMIUM : 1 x 4.49 GB]

1fichier
Télécharger

Uptobox
Télécharger

Uploaded
Télécharger

Rapidgator
Télécharger

TurboBit
Télécharger

NFO :

Afficher / Masquer le texte acdf0885163cca193a4e8f6b4174269c » class= »text_spoiler » style= »display:none; »>General
Unique ID : 186658711523158305038548245260261928529 (0x8C6D29023B94F8DFA985B794FF2C2E51)
Complete name : Boyz.n.the.Hood.1991.MULTi.720p.BluRay.x264-www.Zone-Telechargement.com.mkv
Format : Matroska
Format version : Version 2
File size : 4.49 GiB
Duration : 1h 52mn
Overall bit rate : 5 736 Kbps
Encoded date : UTC 2010-01-08 18:58:21
Writing application : mkvmerge v2.9.8 ('C'est le bon') built on Aug 13 2009 12:49:06
Writing library : libebml v0.7.7 libmatroska v0.8.1

Video
ID : 3
Format : AVC
Format/Info : Advanced Video Codec
Format profile : [email protected]
Format settings, CABAC : Yes
Format settings, ReFrames : 8 frames
Codec ID : V_MPEG4/ISO/AVC
Duration : 1h 52mn
Bit rate : 5 157 Kbps
Width : 1 280 pixels
Height : 720 pixels
Display aspect ratio : 16:9
Frame rate mode : Constant
Frame rate : 23.976 fps
Color space : YUV
Chroma subsampling : 4:2:0
Bit depth : 8 bits
Scan type : Progressive
Bits/(Pixel*Frame) : 0.233
Stream size : 3.95 GiB (88%)
Writing library : x264 core 57 svn-709C
Encoding settings : cabac=1 / ref=5 / deblock=1:0:0 / analyse=0x3:0x133 / me=umh / fpel_cmp=sad / subme=7 / me-prepass=0 / brdo=1 / mixed_ref=1 / me_range=16 / chroma_me=1 / trellis=1 / 8x8dct=1 / cqm=0 / deadzone=21,11 / chroma_qp_offset=0 / threads=6 / nr=0 / decimate=1 / mbaff=0 / bframes=3 / b_pyramid=1 / b_adapt=1 / b_bias=0 / direct=1 / wpredb=1 / bime=1 / keyint=240 / keyint_min=24 / scenecut=40(pre) / rc=2pass / bitrate=5157 / ratetol=1.0 / rceq='blurCplx^(1-qComp)' / qcomp=0.60 / qpmin=10 / qpmax=51 / qpstep=4 / cplxblur=20.0 / qblur=0.5 / ip_ratio=1.40 / pb_ratio=1.30
Language : English
Default : Yes
Forced : No

Audio #1
ID : 2
Format : AC-3
Format/Info : Audio Coding 3
Mode extension : CM (complete main)
Format settings, Endianness : Big
Codec ID : A_AC3
Duration : 1h 52mn
Bit rate mode : Constant
Bit rate : 192 Kbps
Channel(s) : 2 channels
Channel positions : Front: L R
Sampling rate : 48.0 KHz
Bit depth : 16 bits
Compression mode : Lossy
Delay relative to video : 24ms
Stream size : 154 MiB (3%)
Title : Français [email protected] VFF
Language : French
Default : Yes
Forced : Yes

Audio #2
ID : 4
Format : AC-3
Format/Info : Audio Coding 3
Mode extension : CM (complete main)
Format settings, Endianness : Big
Codec ID : A_AC3
Duration : 1h 52mn
Bit rate mode : Constant
Bit rate : 384 Kbps
Channel(s) : 6 channels
Channel positions : Front: L C R, Side: L R, LFE
Sampling rate : 48.0 KHz
Bit depth : 16 bits
Compression mode : Lossy
Stream size : 308 MiB (7%)
Title : Anglais [email protected]
Language : English
Default : No
Forced : No

Text #1
ID : 1
Format : UTF-8
Codec ID : S_TEXT/UTF8
Codec ID/Info : UTF-8 Plain Text
Title : Français
Language : French
Default : No
Forced : No

Text #2
ID : 5
Format : UTF-8
Codec ID : S_TEXT/UTF8
Codec ID/Info : UTF-8 Plain Text
Title : Anglais
Language : English
Default : No
Forced : No

 » itemscope= » » itemprop= »aggregateRating » style= »display: none; »>