Télécharger Capitaine Marleau Blu-Ray 1080p/720p FRENCH

Qualité HDTV 720p | FRENCH

Capitaine Marleau

Capitaine Marleau

Origine du film : Français
Réalisateur : Josée Dayan
Acteurs : Gérard Depardieu, Corinne Masiero, Hélène Vincent
Genre : Policier, Drame
Durée : 1h30min
Année de production : 2015
Note spectateurs : Capitaine Marleau 2,9/5 (6)

Capitaine Marleau

Le capitaine Marleau, a l’instinct du chasseur sous des manières volontairement décalées. Comme elle dit elle-même, elle ne survole pas une affaire, elle s’y « enfonce ». Elle guette ses proies, les piste et les surprend à l’improviste. Ses traques s’organisent, dans chaque épisode, autour d’un personnage central, un homme ou femme, à la hauteur de ce flic hors norme.
97611″ style= »display:inline; »>

Capitaine Marleau

Format : XviD
Découpé avec : Winrar

Capitaine Marleau

Capitaine.Marleau.2015.FRENCH.720p.HDTV.x264-QWERTZ

(3988 Mo)

[Liens Interchangeables entre hébergeurs: 3x 1000 Mo + 1x 988 Mo]

Uptobox
Télécharger

Uplea
Télécharger

1fichier
Télécharger

Uploaded
Télécharger

Rapidgator
Télécharger

TurboBit
Télécharger

[Liens PREMIUM]

Uptobox
Télécharger

Uplea
Télécharger

1fichier
Télécharger

Uploaded
Télécharger

Rapidgator
Télécharger

TurboBit
Télécharger

NFO :

Afficher / Masquer le texte f64ad67c6fe50506aae3a977bc349c06″ class= »text_spoiler » style= »display:none; »>General
Format : Matroska
Format version : Version 4 / Version 2
File size : 3.90 GiB
Duration : 1h 29mn
Overall bit rate mode : Variable
Overall bit rate : 6 243 Kbps
Encoded date : UTC 2015-09-12 20:36:07
Writing application : mkvmerge v8.1.0 (‘Psychedelic Postcard’) 64bit
Writing library : libebml v1.3.1 + libmatroska v1.4.2
DURATION : 01:27:45.359000000
NUMBER_OF_FRAMES : 1115
NUMBER_OF_BYTES : 39462
_STATISTICS_WRITING_APP : mkvmerge v8.1.0 (‘Psychedelic Postcard’) 64bit
_STATISTICS_WRITING_DATE_UTC : 2015-09-12 20:36:07
_STATISTICS_TAGS : BPS DURATION NUMBER_OF_FRAMES NUMBER_OF_BYTES

Video
ID : 1
Format : AVC
Format/Info : Advanced Video Codec
Format profile : [email protected]
Format settings, CABAC : Yes
Format settings, ReFrames : 8 frames
Codec ID : V_MPEG4/ISO/AVC
Duration : 1h 29mn
Bit rate mode : Variable
Bit rate : 5 670 Kbps
Maximum bit rate : 5 950 Kbps
Width : 1 280 pixels
Height : 720 pixels
Display aspect ratio : 16:9
Frame rate mode : Constant
Frame rate : 25.000 fps
Color space : YUV
Chroma subsampling : 4:2:0
Bit depth : 8 bits
Scan type : Progressive
Bits/(Pixel*Frame) : 0.246
Stream size : 3.54 GiB (91%)
Writing library : x264 core 148 r2579 73ae2d1
Encoding settings : cabac=1 / ref=8 / deblock=1:-2:-2 / analyse=0x3:0x113 / me=umh / subme=10 / psy=1 / psy_rd=1.00:0.15 / mixed_ref=1 / me_range=24 / chroma_me=1 / trellis=2 / 8x8dct=1 / cqm=0 / deadzone=21,11 / fast_pskip=1 / chroma_qp_offset=-3 / threads=12 / lookahead_threads=1 / sliced_threads=0 / nr=0 / decimate=1 / interlaced=0 / bluray_compat=0 / constrained_intra=0 / bframes=3 / b_pyramid=2 / b_adapt=2 / b_bias=0 / direct=3 / weightb=1 / open_gop=0 / weightp=2 / keyint=250 / keyint_min=25 / scenecut=40 / intra_refresh=0 / rc_lookahead=50 / rc=crf / mbtree=0 / crf=18.0 / qcomp=0.60 / qpmin=0 / qpmax=69 / qpstep=4 / vbv_maxrate=5950 / vbv_bufsize=62500 / crf_max=0.0 / nal_hrd=vbr / filler=0 / ip_ratio=1.40 / pb_ratio=1.30 / aq=1:1.00
Default : Yes
Forced : No

Audio
ID : 2
Format : AC-3
Format/Info : Audio Coding 3
Mode extension : CM (complete main)
Format settings, Endianness : Big
Codec ID : A_AC3
Duration : 1h 29mn
Bit rate mode : Constant
Bit rate : 448 Kbps
Channel(s) : 6 channels
Channel positions : Front: L C R, Side: L R, LFE
Sampling rate : 48.0 KHz
Bit depth : 16 bits
Compression mode : Lossy
Stream size : 286 MiB (7%)
Language : French
Default : Yes
Forced : No

Text
ID : 3
Format : UTF-8
Codec ID : S_TEXT/UTF8
Codec ID/Info : UTF-8 Plain Text
Language : French
Default : No
Forced : No