Telecharger Cargo [VF] [Dvdrip]

(TRUEFRENCH = Vraie voix française)

Qualité BLURAY 720p | TRUEFRENCH | son DTS

Cargo

Cargo

Origine du film : Allemand
Réalisateur : Ivan Engler
Acteurs : Peter Semler, Regula Grauwiller, Gilles Tschudi
Genre : Science fiction, Epouvante-horreur
Durée : 2h0min
Année de production : 2009
Distribué par : Seven 7
Note spectateurs : Cargo

; »>2,2/5 (382)
Bande annonce :

ef6a5ef6139a2c22f268280c221f3c7b

19432886″>Cliquez-ici pour voir la bande annonce ef6a5ef6139a2c22f268280c221f3c7b »> 19432886

ef6a5ef6139a2c22f268280c221f3c7b

Cargo

Depuis l’effondrement de la Terre et de son système écologique, les hommes vivent dans de petites stations spatiales surpeuplées. Le seul espoir est la planète RHEA. A bord du vaisseau Kassandra, toute l’équipe est plongée dans un profond cryo-sommeil à l’exception de la jeune doctoresse Laura qui veille. Au fil de ses gardes, elle a de plus en plus la sensation de ne pas être la seule être éveillée dans ce vaisseau. La recherche de ce mystérieux visiteur est un échec et ne mène qu’à l’éveil de toute l’équipe. Un jeu mortel débute alors. Que transporte ce vaisseau? Et qui ou quoi est à bord?
101204″ style= »display:inline; »>

Cargo

Format : MKV
Découpé avec : Winrar

Cargo

Cargo.2008.TRUEFRENCH.720p.BluRay.x264-St4f

(5580 Mo)

[Liens Interchangeables entre hébergeurs: 5x 1000 Mo + 1x 580 Mo]

Uptobox
Télécharger

Uplea
Télécharger

1fichier
Télécharger

Uploaded
Télécharger

Rapidgator
Télécharger

TurboBit
Télécharger

[ Liens Premium ]

Uptobox
Télécharger

Uplea
Télécharger

1fichier
Télécharger

Uploaded
Télécharger

TurboBit
Télécharger

NFO :

Afficher / Masquer le texte 8e6cce9c715d8e58cada7c6bd73a2f66″ class= »text_spoiler » style= »display:none; »>Cargo.2008.TRUEFRENCH.720p.BluRay.x264-St4f.zone-telechargement.com.mkv
Format : Matroska
Format version : Version 4 / Version 2
File size : 5.45 GiB
Duration : 1h 47mn
Overall bit rate : 7 250 Kbps
Encoded date : UTC 2015-10-07 20:39:13
Writing application : mkvmerge v8.4.0 (‘A better way to fly’) 64bit
Writing library : libebml v1.3.1 + libmatroska v1.4.2
DURATION : 01:47:31.648000000
NUMBER_OF_FRAMES : 604842
NUMBER_OF_BYTES : 1216942704
_STATISTICS_WRITING_APP : mkvmerge v8.4.0 (‘A better way to fly’) 64bit
_STATISTICS_WRITING_DATE_UT : 2015-10-07 20:39:13
_STATISTICS_TAGS : BPS DURATION NUMBER_OF_FRAMES NUMBER_OF_BYTES

Video
ID : 1
Format : AVC
Format/Info : Advanced Video Codec
Format profile : [email protected]
Format settings, CABAC : Yes
Format settings, ReFrames : 9 frames
Codec ID : V_MPEG4/ISO/AVC
Duration : 1h 47mn
Bit rate : 5 743 Kbps
Width : 1 280 pixels
Height : 544 pixels
Display aspect ratio : 2.35:1
Frame rate mode : Constant
Frame rate : 25.000 fps
Color space : YUV
Chroma subsampling : 4:2:0
Bit depth : 8 bits
Scan type : Progressive
Bits/(Pixel*Frame) : 0.330
Stream size : 4.21 GiB (77%)
Writing library : x264 core 146 r2538 121396c
Encoding settings : cabac=1 / ref=9 / deblock=1:-1:-1 / analyse=0x3:0x133 / me=umh / subme=10 / psy=1 / psy_rd=1.00:0.15 / mixed_ref=1 / me_range=32 / chroma_me=1 / trellis=2 / 8x8dct=1 / cqm=0 / deadzone=21,11 / fast_pskip=0 / chroma_qp_offset=-3 / threads=3 / lookahead_threads=1 / sliced_threads=0 / nr=0 / decimate=1 / interlaced=0 / bluray_compat=0 / constrained_intra=0 / bframes=8 / b_pyramid=2 / b_adapt=2 / b_bias=0 / direct=3 / weightb=1 / open_gop=0 / weightp=2 / keyint=250 / keyint_min=25 / scenecut=40 / intra_refresh=0 / rc_lookahead=60 / rc=2pass / mbtree=1 / bitrate=5743 / ratetol=1.0 / qcomp=0.60 / qpmin=0 / qpmax=69 / qpstep=4 / cplxblur=20.0 / qblur=0.5 / vbv_maxrate=50000 / vbv_bufsize=62500 / nal_hrd=none / filler=0 / ip_ratio=1.40 / aq=1:1.00
Language : English
Default : Yes
Forced : No
DURATION : 01:47:36.760000000
NUMBER_OF_FRAMES : 161419
NUMBER_OF_BYTES : 4632418562
_STATISTICS_WRITING_APP : mkvmerge v8.4.0 (‘A better way to fly’) 64bit
_STATISTICS_WRITING_DATE_UT : 2015-10-07 20:39:13
_STATISTICS_TAGS : BPS DURATION NUMBER_OF_FRAMES NUMBER_OF_BYTES

Audio
ID : 2
Format : DTS
Format/Info : Digital Theater Systems
Mode : 16
Format settings, Endianness : Big
Codec ID : A_DTS
Duration : 1h 47mn
Bit rate mode : Constant
Bit rate : 1 509 Kbps
Channel(s) : 6 channels
Channel positions : Front: L C R, Side: L R, LFE
Sampling rate : 48.0 KHz
Bit depth : 16 bits
Compression mode : Lossy
Stream size : 1.13 GiB (21%)
Title : FRENCH (VFF)
Language : French
Default : Yes
Forced : No