Telecharger Célibataire, mode d’emploi[BLURAY 720p]

(TRUEFRENCH = Vraie voix française)
Qualité BLURAY 720p | TRUEFRENCH
celibataire-mode-demploi-bluray-720p
Origine du film : Américain
Réalisateur : Christian Ditter
Acteurs : Dakota Johnson, Rebel Wilson, Leslie Mann
Genre : Comédie
Durée : 1h 50min
Date de sortie : 2 mars 2016
Année de production : 2016
Titre Original : How To Be Single
Distribué par : Warner Bros. France
Note presse : 2,4/5
Note spectateurs :

3,3/5(1143)

 

Il y a toutes sortes de manières de vivre en célibataire. Il y a ceux qui s’y prennent bien, ceux qui s’y prennent mal… Et puis, il y a Alice. Robin. Lucy. Meg. Tom. David… À New York, on ne compte plus les âmes en peine à la recherche du partenaire idéal, que ce soit pour une histoire d’amour, un plan drague… ou un mélange des deux ! Entre les flirts par SMS et les aventures d’une nuit, ces réfractaires au mariage ont tous un point commun : le besoin de redécouvrir le sens du mot célibataire dans un monde où l’amour est en constante mutation. Un vent de libertinage souffle de nouveau sur la ville qui ne dort jamais !

news-id-137529″ style= »display:inline; »>

Format : x264
Découpé avec : Winrar

How.to.Be.Single.2016.TRUEFRENCH.720p.BluRay.x264-Cortex91 (5158 Mo)

[Liens Interchangeables entre hébergeurs: 5x 1000 Mo + 1x 158 Mo]

Uptobox
Télécharger

Uplea
Télécharger

1fichier
Télécharger

Uploaded
Télécharger

Rapidgator
Télécharger

TurboBit
Télécharger

[Liens PREMIUM]

Uptobox
Télécharger

Uplea
Télécharger

1fichier
Télécharger

Uploaded
Partie 1
Partie 2

TurboBit
Télécharger

NFO :

d9538575eb620df15a13b70b2c654f0e » class= »text_spoiler » style= »display:none; »>

General
Format                                   : Matroska
Format version                           : Version 4 / Version 2
File size                                : 5.04 GiB
Duration                                 : 1h 49mn
Overall bit rate                         : 6 568 Kbps
Encoded date                             : UTC 2016-06-04 23:09:43
Writing application                      : mkvmerge v9.1.0 ('Little Earthquakes') 64bit
Writing library                          : libebml v1.3.3 + libmatroska v1.4.4
DURATION                                 : 01:49:49.046000000
NUMBER_OF_FRAMES                         : 617723
NUMBER_OF_BYTES                          : 1242858676
_STATISTICS_WRITING_APP                  : mkvmerge v9.1.0 ('Little Earthquakes') 64bit
_STATISTICS_WRITING_DATE_UTC             : 2016-06-04 23:09:43
_STATISTICS_TAGS                         : BPS DURATION NUMBER_OF_FRAMES NUMBER_OF_BYTES

Video
ID : 1
Format : AVC
Format/Info : Advanced Video Codec
Format profile : [email protected]
Format settings, CABAC : Yes
Format settings, ReFrames : 5 frames
Codec ID : V_MPEG4/ISO/AVC
Duration : 1h 49mn
Bit rate : 5 057 Kbps
Width : 1 280 pixels
Height : 536 pixels
Display aspect ratio : 2.40:1
Frame rate mode : Constant
Frame rate : 23.976 fps
Color space : YUV
Chroma subsampling : 4:2:0
Bit depth : 8 bits
Scan type : Progressive
Bits/(Pixel*Frame) : 0.307
Stream size : 3.78 GiB (75%)
Writing library : x264 core 148 r2692 64f4e24
Encoding settings : cabac=1 / ref=5 / deblock=1:0:0 / analyse=0x3:0x133 / me=umh / subme=7 / psy=1 / psy_rd=1.00:0.00 / mixed_ref=1 / me_range=16 / chroma_me=1 / trellis=1 / 8x8dct=1 / cqm=0 / deadzone=21,11 / fast_pskip=0 / chroma_qp_offset=-2 / threads=12 / lookahead_threads=2 / sliced_threads=0 / nr=0 / decimate=1 / interlaced=0 / bluray_compat=0 / constrained_intra=0 / bframes=3 / b_pyramid=2 / b_adapt=1 / b_bias=0 / direct=1 / weightb=1 / open_gop=0 / weightp=2 / keyint=250 / keyint_min=23 / scenecut=40 / intra_refresh=0 / rc_lookahead=40 / rc=2pass / mbtree=1 / bitrate=5057 / ratetol=1.0 / qcomp=0.60 / qpmin=0 / qpmax=69 / qpstep=4 / cplxblur=20.0 / qblur=0.5 / ip_ratio=1.40 / aq=1:1.00
Language : English
Default : Yes
Forced : No
DURATION : 01:49:49.010000000
NUMBER_OF_FRAMES : 157978
NUMBER_OF_BYTES : 4164463444
_STATISTICS_WRITING_APP : mkvmerge v9.1.0 (‘Little Earthquakes’) 64bit
_STATISTICS_WRITING_DATE_UTC : 2016-06-04 23:09:43
_STATISTICS_TAGS : BPS DURATION NUMBER_OF_FRAMES NUMBER_OF_BYTES

Audio
ID : 4
Format : DTS
Format/Info : Digital Theater Systems
Mode : 16
Format settings, Endianness : Big
Codec ID : A_DTS
Duration : 1h 49mn
Bit rate mode : Constant
Bit rate : 1 509 Kbps
Channel(s) : 6 channels
Channel positions : Front: L C R, Side: L R, LFE
Sampling rate : 48.0 KHz
Bit depth : 24 bits
Compression mode : Lossy
Stream size : 1.16 GiB (23%)
Default : Yes
Forced : No

Text #1
ID : 2
Format : UTF-8
Codec ID : S_TEXT/UTF8
Codec ID/Info : UTF-8 Plain Text
Language : French
Default : No
Forced : No

Text #2
ID : 3
Format : UTF-8
Codec ID : S_TEXT/UTF8
Codec ID/Info : UTF-8 Plain Text
Title : Forced
Language : French
Default : Yes
Forced : Yes

Menu
00:00:00.000 : en:00:00:00.000
00:10:18.493 : en:00:10:18.493
00:20:34.775 : en:00:20:34.775
00:31:17.751 : en:00:31:17.751
00:41:28.194 : en:00:41:28.194
00:52:06.832 : en:00:52:06.832
01:03:33.560 : en:01:03:33.560
01:16:21.160 : en:01:16:21.160
01:24:43.036 : en:01:24:43.036
01:32:11.818 : en:01:32:11.818
01:43:26.826 : en:01:43:26.826