Telecharger Cendrillon [BLURAY 720p] French

(TRUEFRENCH = Vraie voix française)

Qualité BLURAY 720p | TRUEFRENCH

Cendrillon

Cendrillon

Origine du film : Américain
Réalisateur : Kenneth Branagh
Acteurs : Lily James, Cate Blanchett, Richard Madden
Genre : Fantastique, Romance, Famille
Durée : 1h44min
Date de sortie : 25 mars 2015
Année de production : 2015
Titre Original : Cinderella
Distribué par : The Walt Disney Company France
Note presse : Cendrillon 3,0/5
Note spectateurs : Cendrillon

; »>3,7/5 (2 224)
Bande annonce :

662dfb1d0c2c445ee92e6ec22a99a23c

19551294″>Cliquez-ici pour voir la bande annonce 662dfb1d0c2c445ee92e6ec22a99a23c »> 19551294

662dfb1d0c2c445ee92e6ec22a99a23c

Cendrillon

Le père d’Ella, un marchand, s’est remarié après la mort tragique de la mère de la jeune fille. Pour l’amour de son père, Ella accueille à bras ouverts sa nouvelle belle-mère et les filles de celle-ci, Anastasie et Javotte. Mais lorsque le père d’Ella meurt à son tour, la jeune fille se retrouve à la merci de sa nouvelle famille, jalouse et cruelle. Les trois méchantes femmes font d’elle leur servante, et la surnomment avec mépris Cendrillon parce qu’elle est toujours couverte de cendres. Pourtant, malgré la cruauté dont elle est victime, Ella est déterminée à respecter la promesse faite à sa mère avant de mourir : elle sera courageuse et bonne. Elle ne se laissera aller ni au désespoir, ni au mépris envers ceux qui la maltraitent. Un jour, Ella rencontre un beau jeune homme dans la forêt. Ignorant qu’il s’agit d’un prince, elle le croit employé au palais. Ella a le sentiment d’avoir trouvé l’âme soeur. Une lueur d’espoir brûle dans son coeur, car toutes les jeunes filles du pays ont été invitées à assister à un bal au palais. Espérant y rencontrer à nouveau le charmant Kit, Ella attend avec impatience de se rendre à la fête. Hélas, sa belle-mère lui défend d’y assister et réduit sa robe en pièces… Pendant ce temps, le Grand Duc complote avec la méchante belle-mère pour empêcher le Prince de retrouver celle qu’il aime… Heureusement, comme dans tout bon conte de fées, la chance finira par sourire à Ella : une vieille mendiante fait son apparition, et à l’aide d’une citrouille et de quelques souris, elle va changer le destin de la jeune fille…
94979″ style= »display:inline; »>

Cendrillon

Format : MKV
Découpé avec : Winrar

Cendrillon

Cinderella.2015.TRUEFRENCH.720p.BluRay.x264-NoTag

(4744 Mo)

[Liens Interchangeables entre hébergeurs: 4x 1000 Mo + 1x 744 Mo]

Uptobox
Télécharger

Uplea
Télécharger

1fichier
Télécharger

Uploaded
Télécharger

Rapidgator
Télécharger

TurboBit
Télécharger

[ 1 lien Premium ]

Uptobox
Télécharger

Uplea
Télécharger

1fichier
Télécharger

Uploaded
Télécharger

Rapidgator
Télécharger

TurboBit
Télécharger

NFO :

Afficher / Masquer le texte 74727b09175dd9cefde5a5c9f5607ea3″ class= »text_spoiler » style= »display:none; »>General
Complete name : Cinderella.2015.TRUEFRENCH.720p.BluRay.x264-NoTag.mkv
Format : Matroska
Format version : Version 4 / Version 2
File size : 4.63 GiB
Duration : 1h 45mn
Overall bit rate : 6 295 Kbps
Encoded date : UTC 2015-08-15 18:53:24
Writing application : mkvmerge v6.0.0 (‘Coming Up For Air’) built on Jan 20 2013 09:52:00
Writing library : libebml v1.3.0 + libmatroska v1.4.0

Video
ID : 1
Format : AVC
Format/Info : Advanced Video Codec
Format profile : [email protected]
Format settings, CABAC : Yes
Format settings, ReFrames : 5 frames
Codec ID : V_MPEG4/ISO/AVC
Duration : 1h 45mn
Bit rate : 5 910 Kbps
Width : 1 280 pixels
Height : 536 pixels
Display aspect ratio : 2.40:1
Frame rate mode : Constant
Frame rate : 23.976 fps
Color space : YUV
Chroma subsampling : 4:2:0
Bit depth : 8 bits
Scan type : Progressive
Bits/(Pixel*Frame) : 0.359
Stream size : 4.26 GiB (92%)
Writing library : x264 core 144 r2525 40bb568
Encoding settings : cabac=1 / ref=5 / deblock=1:0:0 / analyse=0x3:0x133 / me=umh / subme=7 / psy=1 / psy_rd=1.00:0.00 / mixed_ref=1 / me_range=16 / chroma_me=1 / trellis=1 / 8x8dct=1 / cqm=0 / deadzone=21,11 / fast_pskip=0 / chroma_qp_offset=-2 / threads=18 / lookahead_threads=3 / sliced_threads=0 / nr=0 / decimate=1 / interlaced=0 / bluray_compat=0 / constrained_intra=0 / bframes=3 / b_pyramid=2 / b_adapt=1 / b_bias=0 / direct=1 / weightb=1 / open_gop=0 / weightp=2 / keyint=250 / keyint_min=23 / scenecut=40 / intra_refresh=0 / rc_lookahead=40 / rc=2pass / mbtree=1 / bitrate=5910 / ratetol=1.0 / qcomp=0.60 / qpmin=0 / qpmax=69 / qpstep=4 / cplxblur=20.0 / qblur=0.5 / ip_ratio=1.40 / aq=1:1.00
Language : English
Default : Yes
Forced : No

Audio
ID : 2
Format : AC-3
Format/Info : Audio Coding 3
Mode extension : CM (complete main)
Format settings, Endianness : Big
Codec ID : A_AC3
Duration : 1h 45mn
Bit rate mode : Constant
Bit rate : 384 Kbps
Channel(s) : 6 channels
Channel positions : Front: L C R, Side: L R, LFE
Sampling rate : 48.0 KHz
Bit depth : 16 bits
Compression mode : Lossy
Stream size : 289 MiB (6%)
Default : Yes
Forced : No

Menu
00:00:00.000 : en:00:00:00.000
00:06:35.437 : en:00:06:35.437
00:13:58.588 : en:00:13:58.588
00:17:56.117 : en:00:17:56.117
00:22:05.574 : en:00:22:05.574
00:26:36.762 : en:00:26:36.762
00:31:17.876 : en:00:31:17.876
00:34:37.701 : en:00:34:37.701
00:38:39.400 : en:00:38:39.400
00:42:54.697 : en:00:42:54.697
00:52:52.753 : en:00:52:52.753
01:03:13.957 : en:01:03:13.957
01:10:54.667 : en:01:10:54.667
01:16:46.352 : en:01:16:46.352
01:20:41.754 : en:01:20:41.754
01:25:36.089 : en:01:25:36.089
01:28:27.177 : en:01:28:27.177
01:39:11.529 : en:01:39:11.529

Jeux Gratuit
15354131_1854970838071206_1069261547_o.png