Télécharger Cerise French

Qualité WEB-DL 1080p | FRENCH

Cerise

Cerise

Origine du film : Français
Réalisateur : Jérôme Enrico
Acteurs : Zoé Adjani-Vallat, Jonathan Zaccaï, Tania Vichkova
Genre : Comédie
Durée : 1h30min
Date de sortie : 1 avril 2015
Année de production : 2014
Distribué par : Gaumont
Note spectateurs : Cerise 3,2/5 (209)
Bande annonce :

d8bd246fa5ebab18fc6804d49a8dcb48

19551511″>Cliquez-ici pour voir la bande annonce d8bd246fa5ebab18fc6804d49a8dcb48″> 19551511

d8bd246fa5ebab18fc6804d49a8dcb48

Cerise

Cerise a 14 ans, mais elle en paraît 20. Cerise a grandi à côté du périphérique, mais la voilà exilée en Ukraine. Cerise se maquille outrageusement, mais elle a encore des rêves de petite fille. Cerise ne connaît pas son père, pourtant elle doit vivre avec. Cerise ne s’est jamais intéressée qu’à sa petite personne, et la voilà plongée dans une révolution ! Cerise ou les pérégrinations d’une adolescente à la recherche de l’amour absolu… à la recherche d’elle même.
94002″ style= »display:inline; »>

Cerise

Format : MKV

Cerise

Cerise.2014.TRUEFRENCH.WEB-DL.1080p.x264-SVR

(3196 Mo)

[Liens Interchangeables entre hébergeurs: 3x 1000 Mo + 1x 196 Mo]

Uptobox
Télécharger

Uplea
Télécharger

1fichier
Télécharger

Uploaded
Télécharger

Rapidgator
Télécharger

TurboBit
Télécharger

NFO :

Afficher / Masquer le texte e2f66a0de0d92e9a7f0c8779e216170e » class= »text_spoiler » style= »display:none; »>General
Complete name : Cerise.2014.TRUEFRENCH.WEB-DL.1080p.x264-SVR.mkv
Format : Matroska
Format version : Version 2
File size : 3.12 GiB
Duration : 1h 30mn
Overall bit rate : 4 928 Kbps
Encoded date : UTC 2015-08-07 14:54:02
Writing application : mkvmerge v5.6.0 (‘Kenya Kane’) built on May 28 2012 06:47:39
Writing library : libebml v1.2.2 + libmatroska v1.3.0

Video
ID : 2
Format : AVC
Format/Info : Advanced Video Codec
Format profile : [email protected]
Format settings, CABAC : Yes
Format settings, ReFrames : 5 frames
Muxing mode : Header stripping
Codec ID : V_MPEG4/ISO/AVC
Duration : 1h 30mn
Bit rate : 4 446 Kbps
Width : 1 912 pixels
Height : 792 pixels
Display aspect ratio : 2.40:1
Frame rate : 24.000 fps
Color space : YUV
Chroma subsampling : 4:2:0
Bit depth : 8 bits
Scan type : Progressive
Bits/(Pixel*Frame) : 0.122
Stream size : 2.82 GiB (90%)
Language : English
Default : Yes
Forced : No
Color primaries : BT.709-5, BT.1361, IEC 61966-2-4, SMPTE RP177
Transfer characteristics : BT.709-5, BT.1361
Matrix coefficients : BT.709-5, BT.1361, IEC 61966-2-4 709, SMPTE RP177

Audio
ID : 3
Format : AC-3
Format/Info : Audio Coding 3
Mode extension : CM (complete main)
Format settings, Endianness : Big
Muxing mode : Header stripping
Codec ID : A_AC3
Duration : 1h 30mn
Bit rate mode : Constant
Bit rate : 384 Kbps
Channel(s) : 6 channels
Channel positions : Front: L C R, Side: L R, LFE
Sampling rate : 48.0 KHz
Bit depth : 16 bits
Compression mode : Lossy
Stream size : 249 MiB (8%)
Language : French
Default : No
Forced : No

Text
ID : 1
Format : UTF-8
Codec ID : S_TEXT/UTF8
Codec ID/Info : UTF-8 Plain Text
Title : FR_FORCED
Language : French
Default : Yes
Forced : Yes

15354131_1854970838071206_1069261547_o.png