Telecharger Ces garçons qui venaient du Brésil [DVDRiP] French

(TRUEFRENCH = Vraie voix française)

Qualité BDRiP mkv | MULTiLANGUES (Avec TRUEFRENCH)

Ces garçons qui venaient du Brésil

Ces garçons qui venaient du Brésil

Origine du film : Américain, Britannique
Réalisateur : Franklin J. Schaffner
Acteurs : Jeremy Blackman, Sky du Mont, Linda Hayden
Genre : Thriller, Science fiction, Drame
Durée : 2h5min
Date de sortie : 30 mai 1979
Année de production : 1978
Titre Original : The Boys from Brazil
Distribué par : Swashbuckler Films
Note presse : Ces garçons qui venaient du Brésil 4,0/5
Note spectateurs : Ces garçons qui venaient du Brésil

; »>3,7/5 (139)
Bande annonce :

9d51e542c65ee5209ee99bcd6a7e041e

19465975″>Cliquez-ici pour voir la bande annonce 9d51e542c65ee5209ee99bcd6a7e041e »> 19465975

9d51e542c65ee5209ee99bcd6a7e041e

Ces garçons qui venaient du Brésil

Ezra Lieberman, célèbre chasseur de nazis, reçoit un étrange appel en provenance du Paraguay. Son correspondant l’informe qu’un complot se prépare. A sa tête, le sinistre docteur Mengele, terrifiant médecin nazi recherché par toutes les polices. Son objectif : assassiner 94 hommes à travers le monde. Quel est le but de ce complot ? Quel point commun réunit les 94 victimes ? Lieberman se lance dans une enquête, dont la solution est au-delà de ses pires cauchemars…
101660″ style= »display:inline; »>

Ces garçons qui venaient du Brésil

Format : MKV

Ces garçons qui venaient du Brésil

Ces garçons qui venaient du Brésil 1978 MULTI.BRRip.x264.AC3-HuSh

(1370 Mo)

Uptobox
Télécharger

Uploaded
Télécharger

TurboBit
Télécharger

Rapidgator
Télécharger

Uplea
Télécharger

1fichier
Télécharger

NFO :

Afficher / Masquer le texte 4e4f5481dac99131f5a671462ddc3356″ class= »text_spoiler » style= »display:none; »>■General

Unique ID : 235916708410869155039981120849148628883 (0xB17BE7C275CCC38A9A8773E32F57CF93)

Complete name : F:TorrentCes.Garcons.Qui.Venaient.Du.Bresil.1978.MULTI.BRRip.x264.AC3-HuShCes.Garcons.Qui.Venaient.Du.Bresil.1978.MULTI.BRRip.x264.AC3-HuSh.mkv

Format : Matroska

Format version : Version 2

File size : 1.37 GiB

Duration : 2h 4mn

Overall bit rate mode : Variable

Overall bit rate : 1 568 Kbps

Encoded date : UTC 2014-03-13 17:11:14

Writing application : mkvmerge v3.2.0 (‘Beginnings’) built on Feb 12 2010 16:46:17

Writing library : libebml v0.7.9 + libmatroska v0.8.1

Video

ID : 1

Format : AVC

Format/Info : Advanced Video Codec

Format profile : [email protected]

Format settings, CABAC : Yes

Format settings, ReFrames : 8 frames

Codec ID : V_MPEG4/ISO/AVC

Duration : 2h 4mn

Bit rate mode : Variable

Bit rate : 1 182 Kbps

Maximum bit rate : 17.5 Mbps

Width : 720 pixels

Height : 400 pixels

Display aspect ratio : 16:9

Frame rate mode : Constant

Frame rate : 24.000 fps

Color space : YUV

Chroma subsampling : 4:2:0

Bit depth : 8 bits

Scan type : Progressive

Bits/(Pixel*Frame) : 0.171

Stream size : 1.01 GiB (74%)

Writing library : x264 core 140 r2345

Encoding settings : cabac=1 / ref=8 / deblock=1:-1:-1 / analyse=0x3:0x133 / me=umh / subme=9 / psy=1 / psy_rd=1.00:0.00 / mixed_ref=1 / me_range=32 / chroma_me=1 / trellis=2 / 8x8dct=1 / cqm=0 / deadzone=21,11 / fast_pskip=0 / chroma_qp_offset=-2 / threads=6 / lookahead_threads=1 / sliced_threads=0 / nr=0 / decimate=1 / interlaced=0 / bluray_compat=0 / constrained_intra=0 / bframes=3 / b_pyramid=0 / b_adapt=2 / b_bias=0 / direct=3 / weightb=1 / open_gop=0 / weightp=2 / keyint=240 / keyint_min=24 / scenecut=40 / intra_refresh=0 / rc_lookahead=60 / rc=2pass / mbtree=1 / bitrate=1182 / ratetol=1.0 / qcomp=0.60 / qpmin=10 / qpmax=69 / qpstep=4 / cplxblur=20.0 / qblur=0.5 / vbv_maxrate=17500 / vbv_bufsize=17500 / nal_hrd=vbr / filler=0 / ip_ratio=1.40 / aq=1:1.00

Language : French

Default : Yes

Forced : No

Audio #1

ID : 2

Format : AC-3

Format/Info : Audio Coding 3

Mode extension : CM (complete main)

Format settings, Endianness : Big

Codec ID : A_AC3

Duration : 2h 4mn

Bit rate mode : Constant

Bit rate : 192 Kbps

Channel(s) : 2 channels

Channel positions : Front: L R

Sampling rate : 48.0 KHz

Compression mode : Lossy

Delay relative to video : -5ms

Stream size : 172 MiB (12%)

Language : French

Default : Yes

Forced : No

Audio #2

ID : 3

Format : AC-3

Format/Info : Audio Coding 3

Mode extension : CM (complete main)

Format settings, Endianness : Big

Codec ID : A_AC3

Duration : 2h 4mn

Bit rate mode : Constant

Bit rate : 192 Kbps

Channel(s) : 2 channels

Channel positions : Front: L R

Sampling rate : 48.0 KHz

Compression mode : Lossy

Delay relative to video : -5ms

Stream size : 172 MiB (12%)

Language : English

Default : No

Forced : No

Text #1

ID : 4

Format : UTF-8

Codec ID : S_TEXT/UTF8

Codec ID/Info : UTF-8 Plain Text

Title : team-hush.org

Language : French

Default : Yes

Forced : No

Text #2

ID : 5

Format : UTF-8

Codec ID : S_TEXT/UTF8

Codec ID/Info : UTF-8 Plain Text

Language : French

Default : No

Forced : No

Jeux Gratuit
15354131_1854970838071206_1069261547_o.png