Télécharger C'est pas mon jour French

(TRUEFRENCH = Vraie voix française)

Qualité DVDRiP | TRUEFRENCH

C'est pas mon jour

C'est pas mon jour

C'est pas mon jour

Origine du film : Américain
Réalisateur : Skip Woods
Acteurs : Thomas Jane, Aaron Eckhart, Michael Jeter
Genre : Policier, Action, Thriller
Durée : 1h30min
Date de sortie : 11 août 1999
Année de production : 1998
Titre Original : Thursday
Distribué par : Universal Pictures France (UPF)
Note presse : C'est pas mon jour 3,0/5
Note spectateurs : C'est pas mon jour 3,7/5 (60)

C'est pas mon jour

L’architecte Casey Wells vit avec sa jolie femme dans une belle maison et s’apprête à adopter son premier enfant. C’est le moment que choisit son ami d’enfance, Nick, pour venir lui rendre visite. En son absence, Casey découvre que son ami à amener chez lui une valise pleine d’héroine. Fou de colère, il se débarrasse de la drogue au plus vite mais ne tarde pas à recevoir la visite de toute une galerie de personnages, qui cherchent à récupérer soit l’argent, soit la drogue. C’est également le jour que choisit l’inspecteur des services de l’adoption pour tester ses qualités de père …
104028″ style= »display:inline; »>

C'est pas mon jour

Format : XviD

C'est pas mon jour

(905 Mo)

Uptobox
Télécharger

Uploaded
Télécharger

TurboBit
Télécharger

Rapidgator
Télécharger

Uplea
Télécharger

1fichier
Télécharger

NFO :

Afficher / Masquer le texte 57132f92779acecbc8eb2dbad89263ac » class= »text_spoiler » style= »display:none; »>General
Complete name : F:miponyC’est Pas Mon Jour .www.zone-telechargement.com.divx
Format : DivX
Format/Info : Hack of AVI
File size : 885 MiB
Duration : 1h 24mn
Overall bit rate : 1 470 Kbps

Video
ID : 0
Format : MPEG-4 Visual
Format settings, BVOP : 1
Format settings, QPel : No
Format settings, GMC : No warppoints
Format settings, Matrix : Default (H.263)
Muxing mode : Packed bitstream
Codec ID : DX50
Codec ID/Hint : DivX 5
Duration : 1h 24mn
Bit rate : 1 301 Kbps
Width : 720 pixels
Height : 480 pixels
Display aspect ratio : 3:2
Frame rate : 25.000 fps
Standard : NTSC
Color space : YUV
Chroma subsampling : 4:2:0
Bit depth : 8 bits
Scan type : Progressive
Compression mode : Lossy
Bits/(Pixel*Frame) : 0.151
Stream size : 783 MiB (88%)
Title : Main
Writing library : DivX 6.8.5 (UTC 2009-08-20)

Audio
ID : 1
Format : MPEG Audio
Format version : Version 1
Format profile : Layer 3
Mode : Joint stereo
Codec ID : 55
Codec ID/Hint : MP3
Duration : 1h 24mn
Bit rate mode : Constant
Bit rate : 160 Kbps
Channel(s) : 2 channels
Sampling rate : 48.0 KHz
Compression mode : Lossy
Stream size : 96.3 MiB (11%)
Alignment : Split accross interleaves
Interleave, duration : 40 ms (1.00 video frame)
Interleave, preload duration : 500 ms
Title : Audio