Télécharger Charmant garçon French

(TRUEFRENCH = Vraie voix française)

Qualité DVDRiP | TRUEFRENCH

Charmant garçon

Charmant garçon

Origine du film : Français
Réalisateur : Patrick Chesnais
Acteurs : Patrick Chesnais, Alexandra Vandernoot, Jean-François Balmer
Genre : Comédie
Durée : 1h30min
Date de sortie : 24 janvier 2001
Année de production : 2000
Distribué par : Carlotta Films
Note presse : Charmant garçon 3,0/5
Note spectateurs : Charmant garçon 2,6/5 (9)
Bande annonce :

085c40cf15eb06054a46417bdbe010dc

44″>Cliquez-ici pour voir la bande annonce 085c40cf15eb06054a46417bdbe010dc »> 44

085c40cf15eb06054a46417bdbe010dc

Charmant garçon

Octave et ses amis, Achille et Hector, déambulent la nuit dans les épiceries-buvettes, les restaurants d’habitués et les bars glauques.
Octave fait par hasard la connaissance d’Esther. Ces deux personnes ont des caractères diamétralement opposés. Elle est belle, cultivée, libre, créative, tandis que lui est grossier, violent et pleurnichard.
Ce dernier en tombe amoureux. La partie s’annonce difficile.
84573″ style= »display:inline; »>

Charmant garçon

Format : XviD

Charmant garçon

Charmant garçon.DvdRip.FR.2001

(700 Mo)

Uptobox
Télécharger

Uploaded
Télécharger

TurboBit
Télécharger

Rapidgator
Télécharger

Uplea
Télécharger

1fichier
Télécharger

NFO :

Afficher / Masquer le texte 4123d05c22729c6d862738d5a8ec2022″ class= »text_spoiler » style= »display:none; »>General
Complete name : Charmant garτon.avi
Format : AVI
Format/Info : Audio Video Interleave
File size : 699 MiB
Duration : 1h 29mn
Overall bit rate : 1 089 Kbps
Director : Catchap
Writing application : Nandub v1.0rc2
Writing library : Nandub build 1852/release
Comment : DivX 5.02 Pro

Video
ID : 0
Format : MPEG-4 Visual
Format settings, BVOP : 1
Format settings, QPel : No
Format settings, GMC : 2 warppoints
Format settings, Matrix : Default (H.263)
Muxing mode : Packed bitstream
Codec ID : DX50
Codec ID/Hint : DivX 5
Duration : 1h 29mn
Bit rate : 949 Kbps
Width : 608 pixels
Height : 320 pixels
Display aspect ratio : 1.900
Frame rate : 25.000 fps
Color space : YUV
Chroma subsampling : 4:2:0
Bit depth : 8 bits
Scan type : Progressive
Compression mode : Lossy
Bits/(Pixel*Frame) : 0.195
Stream size : 609 MiB (87%)
Writing library : DivX 5.0.2 (UTC 2002-05-16)

Audio
ID : 1
Format : MPEG Audio
Format version : Version 1
Format profile : Layer 3
Mode : Joint stereo
Mode extension : MS Stereo
Codec ID : 55
Codec ID/Hint : MP3
Duration : 1h 29mn
Bit rate mode : Constant
Bit rate : 128 Kbps
Channel(s) : 2 channels
Sampling rate : 44.1 KHz
Compression mode : Lossy
Stream size : 82.2 MiB (12%)
Alignment : Aligned on interleaves
Interleave, duration : 26 ms (0.65 video frame)
Interleave, preload duration : 496 ms
Writing library : LAME3.92