Télécharger Christophe Colomb : la découverte French

(TRUEFRENCH = Vraie voix française)

Qualité DVDRiP | TRUEFRENCH

Christophe Colomb : la découverte

Christophe Colomb : la découverte

Origine du film : Américain, Britannique, Espagnol
Réalisateur : John Glen
Acteurs : Manuel de Blas, Georges Corraface, Marlon Brando
Genre : Aventure, Historique
Durée : 2h0min
Année de production : 1992
Titre Original : Christopher Columbus : the Discovery
Distribué par : Metropolitan FilmExport
Note spectateurs : Christophe Colomb : la découverte 2,3/5 (48)

Christophe Colomb : la découverte

Après cinq ans, Christophe Colomb est finalement soutenu et aidé financièrement par le trône d’Espagne. il part réaliser son rêve : trouver une nouvelle route menant aux Indes. A la tête d’une expédition de trois caravelles, il ne parviendra jamais aux Indes, mais fera une découverte majeure, celle d’un continent encore inexploré : les Amériques.
98919″ style= »display:inline; »>

Christophe Colomb : la découverte

Format : XviD

Christophe Colomb : la découverte

Christophe Colomb La Découverte Dvdrip

(999 Mo)

Uptobox
Télécharger

Uploaded
Télécharger

TurboBit
Télécharger

Rapidgator
Télécharger

Uplea
Télécharger

1fichier
Télécharger

NFO :

Afficher / Masquer le texte 147e802ff5a552890fa9e0f077207e50″ class= »text_spoiler » style= »display:none; »>General
Complete name : J:Christophe Colomb La Decouverte (1992).avi
Format : AVI
Format/Info : Audio Video Interleave
File size : 999 MiB
Duration : 1h 55mn
Overall bit rate : 1 208 Kbps
Writing application : FairUse Wizard – http://fairusewizard.com
Writing library : The best and REALLY easy backup tool

Video
ID : 0
Format : MPEG-4 Visual
Format profile : Advanced [email protected]
Format settings, BVOP : Yes
Format settings, QPel : No
Format settings, GMC : No warppoints
Format settings, Matrix : Default (MPEG)
Codec ID : XVID
Codec ID/Hint : XviD
Duration : 1h 55mn
Bit rate : 1 071 Kbps
Width : 656 pixels
Height : 288 pixels
Display aspect ratio : 2.25:1
Frame rate : 25.000 fps
Color space : YUV
Chroma subsampling : 4:2:0
Bit depth : 8 bits
Scan type : Progressive
Compression mode : Lossy
Bits/(Pixel*Frame) : 0.227
Stream size : 886 MiB (89%)
Writing library : XviD 1.2.0.dev47 (UTC 2006-11-01)

Audio
ID : 1
Format : MPEG Audio
Format version : Version 1
Format profile : Layer 3
Mode : Joint stereo
Mode extension : MS Stereo
Codec ID : 55
Codec ID/Hint : MP3
Duration : 1h 55mn
Bit rate mode : Constant
Bit rate : 128 Kbps
Channel count : 2 channels
Sampling rate : 48.0 KHz
Compression mode : Lossy
Stream size : 106 MiB (11%)
Alignment : Aligned on interleaves
Interleave, duration : 40 ms (1.00 video frame)
Interleave, preload duration : 504 ms
Writing library : LAME3.97b
Encoding settings : -m j -V 4 -q 2 -lowpass 17 -b 128