Telecharger Clochette et la pierre de lune [BLURAY 720p] French

BLURAY 720p | FRENCH

Clochette et la pierre de lune

Clochette et la pierre de lune

Clochette et la pierre de lune

Origine du film : Américain
Réalisateur : Klay Hall
Acteurs : Lucy Liu, Mae Whitman, Kristin Chenoweth
Genre : Animation
Durée : 1h 15min
Année de production : 2009
Titre Original : Tinker Bell and the Lost Treasure
Note presse : Clochette et la pierre de lune 3,5/5
Note spectateurs : Clochette et la pierre de lune 3,5/5 (78)
Bande annonce :

8dfe60b469fabe7d0b3a298061dadff2

18907767″>Cliquez-ici pour voir la bande annonce 8dfe60b469fabe7d0b3a298061dadff2″> 18907767

8dfe60b469fabe7d0b3a298061dadff2

Clochette et la pierre de lune

Clochette a été choisie parmi toutes les fées bricoleuses pour réaliser le Sceptre d'Automne. Son ami Terence est chargé de l'aider. Mais en lui apportant une boussole dont elle recher-chait l'aiguille, le jeune garçon casse maladroitement le Sceptre sur lequel elle travaillait. Folle de rage, Clochette empire la situation en brisant accidentellement la Pierre de Lune, la partie la plus noble du sceptre. Comme de son plein éclat dépend l'arrivée de la saison, tous deux doivent partir au nord du Pays Imaginaire la réparer en urgence, malgré leur différent…

Nom de la release : La.Fee.Clochette.Et.La.Pierre.De.Lune.2009.FRENCH.720p.BLURAY.x264 17126″ style= »display:inline; »>

Clochette et la pierre de lune

Qualité : BLURAY 720p
Format : MKV
Langue : Français
Découpé avec : Winrar
Nombre de fichiers : 3 Fichiers
Taille des fichiers : 700 Mo + 665 Mo
Taille totale : 2065 Mo

Clochette et la pierre de lune

[Liens Interchangeables]

1fichier.com
Télécharger

Uptobox.com
Télécharger

Uploaded
Télécharger

Rapidgator
Télécharger

TurboBit
Télécharger

[1 lien PREMIUM]

1fichier.com
Télécharger

Uptobox.com
Télécharger

Uploaded
Télécharger

Rapidgator
Télécharger

TurboBit
Télécharger

NFO :

Afficher / Masquer le texte ceae8f55bf62b351772de3f7c6599357″ class= »text_spoiler » style= »display:none; »>General
Unique ID : 222517824200452865922601703305719945755 (0xA7675FC3A01186F9989472CB92659A1B)
Complete name : D:0Fee.clochette.et.la.pierre.de.lune.2009.FRENCH.720p.BluRay.mkv
Format : Matroska
Format version : Version 1
File size : 2.02 GiB
Duration : 1h 20mn
Overall bit rate : 3 599 Kbps
Encoded date : UTC 2009-10-30 13:22:30
Writing application : mkvmerge v2.0.2 (‘You’re My Flame’) built on Feb 21 2007 23:40:55
Writing library : libebml v0.7.7 + libmatroska v0.8.1

Video
ID : 1
Format : AVC
Format/Info : Advanced Video Codec
Format profile : [email protected]
Format settings, CABAC : Yes
Format settings, ReFrames : 5 frames
Codec ID : V_MPEG4/ISO/AVC
Duration : 1h 20mn
Bit rate : 3 212 Kbps
Width : 1 280 pixels
Height : 720 pixels
Display aspect ratio : 16:9
Frame rate mode : Constant
Frame rate : 23.976 fps
Color space : YUV
Chroma subsampling : 4:2:0
Bit depth : 8 bits
Scan type : Progressive
Bits/(Pixel*Frame) : 0.145
Stream size : 1.76 GiB (87%)
Writing library : x264 core 78 r1310 ec46ace
Encoding settings : cabac=1 / ref=5 / deblock=1:0:0 / analyse=0x3:0x113 / me=umh / subme=7 / psy=1 / psy_rd=1.0:0.0 / mixed_ref=1 / me_range=16 / chroma_me=1 / trellis=1 / 8x8dct=1 / cqm=0 / deadzone=21,11 / chroma_qp_offset=-2 / threads=6 / nr=0 / decimate=1 / mbaff=0 / constrained_intra=0 / bframes=3 / b_pyramid=0 / b_adapt=1 / b_bias=0 / direct=1 / wpredb=1 / keyint=250 / keyint_min=25 / scenecut=40 / rc_lookahead=40 / rc=2pass / mbtree=1 / bitrate=3212 / ratetol=1.0 / qcomp=0.60 / qpmin=10 / qpmax=51 / qpstep=4 / cplxblur=20.0 / qblur=0.5 / ip_ratio=1.40 / aq=1:1.00
Language : English
Default : Yes
Forced : No

Audio
ID : 2
Format : AC-3
Format/Info : Audio Coding 3
Mode extension : CM (complete main)
Format settings, Endianness : Big
Codec ID : A_AC3
Duration : 1h 20mn
Bit rate mode : Constant
Bit rate : 384 Kbps
Channel(s) : 6 channels
Channel positions : Front: L C R, Side: L R, LFE
Sampling rate : 48.0 KHz
Bit depth : 16 bits
Compression mode : Lossy
Stream size : 220 MiB (11%)
Title : FRENCH [email protected] HDD
Language : French
Default : Yes
Forced : No